情定巴黎[国英多音轨/中英字幕].French.Kiss.1995.BluRay.1080p.x265.10bit.2Audio-MiniHD 5.89GB

版主小s 28天前 256

◎译 名 情定巴黎 / 一切从失恋开始(港)

◎片 名 French Kiss

◎年 代 1995

◎产 地 英国 / 美国

◎类 别 喜剧 / 爱情

◎语 言 英语 / 法语

◎上映日期 1995-05-05

◎IMDb链接 https://www.imdb.com/title/tt0113117/

◎豆瓣评分 7.4/10 (8945人评价)

◎豆瓣链接 https://movie.douban.com/subject/1292629/

◎片 长 111 分钟

◎导 演 劳伦斯·卡斯丹 Lawrence Kasdan (id:1014071)

◎编 剧 亚当·布鲁克斯 Adam Brooks (id:1050155)

◎演 员 凯文·克莱恩 Kevin Kline (id:1040531)

梅格·瑞恩 Meg Ryan (id:1016679)

蒂莫西·赫顿 Timothy Hutton (id:1025207)

让·雷诺 Jean Reno (id:1025182)

沃尔夫冈·皮索尔斯 Wolfgang Pissors (id:1352202)

迈克尔·莱利 Michael Riley (id:1139140)

芮妮·汉弗莱 Renée Humphrey (id:1004766)

克莱门特·史鲍尼 Clément Sibony (id:1297549)

苏珊·安贝赫 Suzan Anbeh (id:1059415)

弗朗索瓦·克鲁塞 Fran?ois Cluzet (id:1050210)

蒂姆·贝文 Tim Bevan (id:1278562)

埃里克·菲尔纳 Eric Fellner (id:1283560)

詹姆斯·纽顿·霍华德 James Newton Howard (id:1019135)

欧文·罗兹曼 Owen Roizman (id:1050597)

乔·哈欣 Joe Hutshing (id:1287228)

乔恩·赫特曼 Jon Hutman (id:1287219)

乔安娜·约翰斯顿 Joanna Johnston (id:1287829)

托马斯·J·史密斯 Thomas J. Smith (id:1276658)

丹·格拉斯 Dan Glass (id:1284956)

罗布·霍奇森 Rob Hodgson (id:1286743)

Chris Watts Chris Watts (id:1300517)

Derek Spears Derek Spears (id:1298123)

布拉德·库恩 Brad Kuehn (id:1289086)

◎简 介

性格内向的凯特(梅格?瑞恩 饰)深爱着自己的未婚夫,两人到了谈婚论嫁的地步,男友竟爱上了别的女人,要与凯特分手。凯特伤心死了,但她仍不能放下未婚夫,因此她独自一人前往法国寻找未婚夫,希望能重修于好。

凯特后来在飞往巴黎的班级上偶遇了一名男子。这个叫吕克(凯文?克莱恩 饰)的法国男子对凯特很殷勤,愿意与凯特分享烦恼,但凯特并不知道,这名神秘的男子早已引起了法国警方的注意,他想摆脱追踪,便打算要利用凯特。

巴黎对于凯特来说是个陌生的地方,但她心里只想找到前男友,吕克主动请缨要帮忙凯特,两人竟开始了一段浪漫的法国之旅。动人的氛围影响下,两人情愫渐生。

吕克一开始的目的,又会否阻碍两人之间的感情进展呢?

  1. ##### MediaInfo ######

  2. General

  3. Unique ID : 234976045318175078389461543698041769584 (0xB0C6BD7D0A080D53AE85FBD9F8CD8E70)

  4. Complete name : French.Kiss.1995.BluRay.1080p.x265.10bit.2Audio-MiniHD.mkv

  5. Format : Matroska

  6. Format version : Version 4

  7. File size : 5.89 GiB

  8. Duration : 1 h 51 min

  9. Overall bit rate : 7 580 kb/s

  10. Encoded date : UTC 2017-06-01 15:02:11

  11. Writing application : mkvmerge v11.0.0 ('Alive') 64bit

  12. Writing library : libebml v1.3.4 + libmatroska v1.4.5

  13. Video

  14. ID : 1

  15. Format : HEVC

  16. Format/Info : High Efficiency Video Coding

  17. Codec ID : V_MPEGH/ISO/HEVC

  18. Duration : 1 h 51 min

  19. Bit rate : 6 470 kb/s

  20. Width : 1 920 pixels

  21. Height : 814 pixels

  22. Display aspect ratio : 2.35:1

  23. Frame rate mode : Constant

  24. Frame rate : 23.976 (24000/1001/53354) FPS

  25. Bits/(Pixel*Frame) : 0.173

  26. Stream size : 5.03 GiB (85%)

  27. Default : Yes

  28. Forced : No

  29. Audio #1

  30. ID : 2

  31. Format : AC-3

  32. Format/Info : Audio Coding 3

  33. Commercial name : Dolby Digital

  34. Codec ID : A_AC3

  35. Duration : 1 h 51 min

  36. Bit rate mode : Constant

  37. Bit rate : 640 kb/s

  38. Channel(s) : 6 channels

  39. Channel layout : L R C LFE Ls Rs

  40. Sampling rate : 48.0 kHz

  41. Frame rate : 31.250 FPS (1536 SPF)

  42. Compression mode : Lossy

  43. Stream size : 509 MiB (8%)

  44. Language : English

  45. Service kind : Complete Main

  46. Default : Yes

  47. Forced : No

  48. Audio #2

  49. ID : 3

  50. Format : AC-3

  51. Format/Info : Audio Coding 3

  52. Commercial name : Dolby Digital

  53. Codec ID : A_AC3

  54. Duration : 1 h 51 min

  55. Bit rate mode : Constant

  56. Bit rate : 320 kb/s

  57. Channel(s) : 2 channels

  58. Channel layout : L R

  59. Sampling rate : 48.0 kHz

  60. Frame rate : 31.250 FPS (1536 SPF)

  61. Compression mode : Lossy

  62. Stream size : 255 MiB (4%)

  63. Language : Chinese

  64. Service kind : Complete Main

  65. Default : No

  66. Forced : No

  67. Text #1

  68. ID : 4

  69. Format : PGS

  70. Muxing mode : zlib

  71. Codec ID : S_HDMV/PGS

  72. Codec ID/Info : Picture based subtitle format used on BDs/HD-DVDs

  73. Language : English

  74. Default : Yes

  75. Forced : No

  76. Text #2

  77. ID : 5

  78. Format : PGS

  79. Muxing mode : zlib

  80. Codec ID : S_HDMV/PGS

  81. Codec ID/Info : Picture based subtitle format used on BDs/HD-DVDs

  82. Language : Chinese

  83. Default : No

  84. Forced : No

  85. Text #3

  86. ID : 6

  87. Format : PGS

  88. Muxing mode : zlib

  89. Codec ID : S_HDMV/PGS

  90. Codec ID/Info : Picture based subtitle format used on BDs/HD-DVDs

  91. Language : Chinese

  92. Default : No

  93. Forced : No

  94. Text #4

  95. ID : 7

  96. Format : PGS

  97. Muxing mode : zlib

  98. Codec ID : S_HDMV/PGS

  99. Codec ID/Info : Picture based subtitle format used on BDs/HD-DVDs

  100. Language : Chinese

  101. Default : No

  102. Forced : No

  103. Text #5

  104. ID : 8

  105. Format : PGS

  106. Muxing mode : zlib

  107. Codec ID : S_HDMV/PGS

  108. Codec ID/Info : Picture based subtitle format used on BDs/HD-DVDs

  109. Language : Chinese

  110. Default : No

  111. Forced : No

  112. Menu

  113. 00:00:00.000 : en:Chapter 01

  114. 00:07:55.641 : en:Chapter 02

  115. 00:10:00.265 : en:Chapter 03

  116. 00:15:53.409 : en:Chapter 04

  117. 00:21:43.844 : en:Chapter 05

  118. 00:24:15.703 : en:Chapter 06

  119. 00:30:33.163 : en:Chapter 07

  120. 00:35:13.152 : en:Chapter 08

  121. 00:39:37.500 : en:Chapter 09

  122. 00:44:16.570 : en:Chapter 10

  123. 00:50:25.146 : en:Chapter 11

  124. 00:56:33.431 : en:Chapter 12

  125. 01:01:14.170 : en:Chapter 13

  126. 01:06:08.296 : en:Chapter 14

  127. 01:13:22.104 : en:Chapter 15

  128. 01:17:17.256 : en:Chapter 16

  129. 01:21:08.279 : en:Chapter 17

  130. 01:27:26.823 : en:Chapter 18

  131. 01:34:28.162 : en:Chapter 19

  132. 01:38:29.278 : en:Chapter 20

  133. 01:42:53.583 : en:Chapter 21

  134. 01:44:41.942 : en:Chapter 22


复制代码


TAGS 喜剧 爱情 /

磁力链:
  • magnet:?xt=urn:btih:61BBEA9D12E30667705C3ACCF8DA3FD530592657
上传的附件:
BT9527电影天堂 1、BT9527电影天堂提供的BT文件均来源于互联网抓取,只供网友学习交流、技术提升使用。
2、我们遵守BitTorrent点对点协议原则,任何版权问题请联系原资源发布商,我们不处理任何版权纠纷,谢谢!如有争议请联系邮箱:BT9527#hotmail.com(#换成@)
3、如果您发现某页面或地址有错误,请联系站长邮箱BT9527#hotmail.com(#换成@),我们会尽快处理。您的热心是对BT9527电影天堂最大的支持。
4、本站建议去正规影院观看电影以支持电影行业发展。
最新回复 (0)

你可以在 登录 or 注册 后,对此帖发表评论!

返回
发新帖