悍女[中英字幕].Brimstone.2016.BluRay.1080p.x265.10bit-MiniHD 4.75GB

版主小s 28天前 306

◎译 名 悍女 / 走过炼狱的女人(台) / 石女 / 炼狱之苦 / Koolhoven's Brimstone

◎片 名 Brimstone

◎年 代 2016

◎产 地 荷兰 / 法国 / 德国 / 比利时 / 瑞典 / 英国

◎类 别 悬疑 / 惊悚 / 西部

◎语 言 英语 / 荷兰语

◎上映日期 2016-09-03(威尼斯电影节) / 2017-01-12(荷兰)

◎IMDb链接 https://www.imdb.com/title/tt1895315/

◎豆瓣评分 6.8/10 (3609人评价)

◎豆瓣链接 https://movie.douban.com/subject/6874166/

◎片 长 148分钟

◎导 演 马丁·寇霍文 Martin Koolhoven (id:1048367)

◎编 剧 马丁·寇霍文 Martin Koolhoven (id:1048367)

◎演 员 达科塔·范宁 Dakota Fanning (id:1013785)

盖·皮尔斯 Guy Pearce (id:1035672)

基特·哈灵顿 Kit Harington (id:1314989)

卡里斯·范·侯登 Carice van Houten (id:1049588)

保罗·安德森 Paul Anderson (id:1317404)

艾米莉亚·琼斯 Emilia Jones (id:1318340)

艾薇·乔治 Ivy George (id:1352855)

薇拉·维塔利 Vera Vitali (id:1344285)

威廉·休斯顿 William Houston (id:1100629)

卡拉·朱里 Carla Juri (id:1337333)

杰克·罗思 Jack Roth (id:1337581)

娜奥米·巴特里克 Naomi Battrick (id:1349950)

艾德里安·斯帕克斯 Adrian Sparks (id:1370685)

多里斯·洛夫 Dorian Lough (id:1349695)

杰克·霍林顿 Jack Hollington (id:1337301)

Alexandra Guelff Alexandra Guelff (id:1438804)

比尔·坦拉蒂 Bill Tangradi (id:1362113)

泰格·格南德特 Tygo Gernandt (id:1092058)

琼基·XL Junkie XL (id:1037776)

◎简 介

故事发生在十七世纪的美国西部小镇中,哑女丽姿(达科塔·范宁 Dakota Fanning 饰)和丈夫伊莱(威廉·休斯顿 William Houston 饰)带着他们的孩子们生活在那里。虽然日子清贫,而丽姿又天生患有残疾,可是两人都对目前稳定的生活心满意足。

一天,镇上来了一位神父(盖·皮尔斯 Guy Pearce 饰),在见到神父第一面时,丽姿就知道,她的幸福生活将一去不复返,神父和丽姿到底有着怎样的过节以至于他要如此无情的迫害她和她的家人呢?丽姿是一名助产士,在一次手术中,孕妇出现了生命危险,在母亲和孩子只能保一个的情况下,丽姿选择了保护母亲,殊不知,这选择亦将她推向了万劫不复的深渊。

◎获奖情况 (共2项)

第73届威尼斯电影节 (2016)

主竞赛单元 金狮奖 (提名)

└──马丁·寇霍文 (id:1048367)

第30届欧洲电影奖 (2017)

最佳服装设计

  1. ##### MediaInfo ######

  2. General

  3. Unique ID : 204989671953597679153491847901460341260 (0x9A379322DA3520209438D683DC34A20C)

  4. Complete name : Brimstone.2016.BluRay.1080p.x265.10bit-MiniHD.mkv

  5. Format : Matroska

  6. Format version : Version 4

  7. File size : 4.75 GiB

  8. Duration : 2 h 28 min

  9. Overall bit rate : 4 577 kb/s

  10. Encoded date : UTC 2017-04-07 16:26:18

  11. Writing application : mkvmerge v9.7.1 ('Pandemonium') 64bit

  12. Writing library : libebml v1.3.4 + libmatroska v1.4.5

  13. Video

  14. ID : 1

  15. Format : HEVC

  16. Format/Info : High Efficiency Video Coding

  17. Format profile : Main 10@L4@Main

  18. Codec ID : V_MPEGH/ISO/HEVC

  19. Duration : 2 h 28 min

  20. Bit rate : 3 846 kb/s

  21. Width : 1 920 pixels

  22. Height : 804 pixels

  23. Display aspect ratio : 2.40:1

  24. Frame rate mode : Constant

  25. Frame rate : 23.976 (24000/1001/53354) FPS

  26. Color space : YUV

  27. Chroma subsampling : 4:2:0

  28. Bit depth : 10 bits

  29. Bits/(Pixel*Frame) : 0.104

  30. Stream size : 3.99 GiB (84%)

  31. Writing library : x265 2.3+24-a0eee4b41185:[Windows][GCC 6.3.0][64 bit] 10bit

  32. Encoding settings : cpuid=533541173503 / frame-threads=6 / numa-pools=36 / wpp / no-pmode / no-pme / no-psnr / no-ssim / log-level=2 / input-csp=1 / input-res=1920x804 / interlace=0 / total-frames=213672 / level-idc=0 / high-tier=1 / uhd-bd=0 / ref=5 / no-allow-non-conformance / no-repeat-headers / annexb / no-aud / no-hrd / info / hash=0 / no-temporal-layers / no-open-gop / min-keyint=1 / keyint=360 / bframes=8 / b-adapt=2 / b-pyramid / bframe-bias=0 / rc-lookahead=60 / lookahead-slices=4 / NTMzNTQ=uuDQuD2mJt9fsCf / scenecut=40 / no-intra-refresh / ctu=32 / min-cu-size=8 / rect / no-amp / max-tu-size=16 / tu-inter-depth=2 / tu-intra-depth=2 / limit-tu=4 / rdoq-level=2 / dynamic-rd=0.00 / signhide / no-tskip / nr-intra=0 / nr-inter=0 / no-constrained-intra / no-strong-intra-smoothing / max-merge=3 / limit-refs=1 / limit-modes / me=3 / subme=5 / merange=25 / temporal-mvp / weightp / weightb / no-analyze-src-pics / deblock=-1:-1 / no-sao / no-sao-non-deblock / rd=4 / no-early-skip / rskip / no-fast-intra / no-tskip-fast / no-cu-lossless / b-intra / rdpenalty=1 / psy-rd=0.00 / psy-rdoq=5.00 / no-rd-refine / analysis-mode=0 / no-lossless / cbqpoffs=-2 / crqpoffs=-2 / rc=crf / crf=17.0 / qcomp=0.65 / qpstep=4 / stats-write=0 / stats-read=0 / ipratio=1.40 / pbratio=1.30 / aq-mode=2 / aq-strength=0.80 / cutree / zone-count=0 / no-strict-cbr / qg-size=16 / no-rc-grain / qpmax=69 / qpmin=0 / sar=0 / overscan=0 / videoformat=5 / range=0 / colorprim=1 / transfer=2 / colormatrix=2 / chromaloc=0 / display-window=0 / max-cll=0,0 / min-luma=0 / max-luma=1023 / log2-max-poc-lsb=8 / vui-timing-info / vui-hrd-info / slices=1 / opt-qp-pps / opt-ref-list-length-pps / no-multi-pass-opt-rps / scenecut-bias=0.05 / no-opt-cu-delta-qp / no-aq-motion / no-hdr / no-hdr-opt / refine-level=5

  33. Default : Yes

  34. Forced : No

  35. Color range : Limited

  36. Color primaries : BT.709

  37. Audio

  38. ID : 2

  39. Format : AC-3

  40. Format/Info : Audio Coding 3

  41. Commercial name : Dolby Digital

  42. Codec ID : A_AC3

  43. Duration : 2 h 28 min

  44. Bit rate mode : Constant

  45. Bit rate : 640 kb/s

  46. Channel(s) : 6 channels

  47. Channel layout : L R C LFE Ls Rs

  48. Sampling rate : 48.0 kHz

  49. Frame rate : 31.250 FPS (1536 SPF)

  50. Compression mode : Lossy

  51. Stream size : 680 MiB (14%)

  52. Language : English

  53. Service kind : Complete Main

  54. Default : Yes

  55. Forced : No

  56. Text #1

  57. ID : 3

  58. Format : PGS

  59. Muxing mode : zlib

  60. Codec ID : S_HDMV/PGS

  61. Codec ID/Info : Picture based subtitle format used on BDs/HD-DVDs

  62. Language : English

  63. Default : Yes

  64. Forced : No

  65. Text #2

  66. ID : 4

  67. Format : PGS

  68. Muxing mode : zlib

  69. Codec ID : S_HDMV/PGS

  70. Codec ID/Info : Picture based subtitle format used on BDs/HD-DVDs

  71. Language : Chinese

  72. Default : No

  73. Forced : No

  74. Text #3

  75. ID : 5

  76. Format : PGS

  77. Muxing mode : zlib

  78. Codec ID : S_HDMV/PGS

  79. Codec ID/Info : Picture based subtitle format used on BDs/HD-DVDs

  80. Language : Chinese

  81. Default : No

  82. Forced : No

  83. Text #4

  84. ID : 6

  85. Format : PGS

  86. Muxing mode : zlib

  87. Codec ID : S_HDMV/PGS

  88. Codec ID/Info : Picture based subtitle format used on BDs/HD-DVDs

  89. Language : Chinese

  90. Default : No

  91. Forced : No

  92. Text #5

  93. ID : 7

  94. Format : PGS

  95. Muxing mode : zlib

  96. Codec ID : S_HDMV/PGS

  97. Codec ID/Info : Picture based subtitle format used on BDs/HD-DVDs

  98. Language : Chinese

  99. Default : No

  100. Forced : No

  101. Menu

  102. 00:00:00.000 : en:Chapter 01

  103. 00:04:29.852 : en:Chapter 02

  104. 00:11:51.919 : en:Chapter 03

  105. 00:19:58.488 : en:Chapter 04

  106. 00:25:06.213 : en:Chapter 05

  107. 00:32:22.190 : en:Chapter 06

  108. 00:42:25.042 : en:Chapter 07

  109. 00:48:21.148 : en:Chapter 08

  110. 00:55:44.341 : en:Chapter 09

  111. 01:01:14.253 : en:Chapter 10

  112. 01:06:42.039 : en:Chapter 11

  113. 01:17:13.962 : en:Chapter 12

  114. 01:24:38.156 : en:Chapter 13

  115. 01:32:47.311 : en:Chapter 14

  116. 01:39:57.241 : en:Chapter 15

  117. 01:49:04.788 : en:Chapter 16

  118. 01:56:10.630 : en:Chapter 17

  119. 02:02:54.867 : en:Chapter 18

  120. 02:13:38.176 : en:Chapter 19

  121. 02:20:17.909 : en:Chapter 20


复制代码


TAGS 惊悚 悬疑 西部 /

磁力链:
  • magnet:?xt=urn:btih:751A18E9BC0A9D2DAAA522E40B306DADDC8766BF
上传的附件:
BT9527电影天堂 1、BT9527电影天堂提供的BT文件均来源于互联网抓取,只供网友学习交流、技术提升使用。
2、我们遵守BitTorrent点对点协议原则,任何版权问题请联系原资源发布商,我们不处理任何版权纠纷,谢谢!如有争议请联系邮箱:BT9527#hotmail.com(#换成@)
3、如果您发现某页面或地址有错误,请联系站长邮箱BT9527#hotmail.com(#换成@),我们会尽快处理。您的热心是对BT9527电影天堂最大的支持。
4、本站建议去正规影院观看电影以支持电影行业发展。
最新回复 (0)

你可以在 登录 or 注册 后,对此帖发表评论!

返回
发新帖