恶魔[中英字幕].Les.Diaboliques.1955.BluRay.1080p.x265.10bit-MiniHD 3.79GB

版主小s 28天前 168

◎译 名 恶魔 / 浴室情杀案(港) / 像恶魔的女人 / 魔鬼双姝 / Diabolique

◎片 名 Les Diaboliques

◎年 代 1955

◎产 地 法国

◎类 别 剧情 / 悬疑 / 惊悚 / 犯罪

◎语 言 法语

◎上映日期 1955-01-29

◎IMDb链接 https://www.imdb.com/title/tt0046911/

◎豆瓣评分 8.4/10 (15404人评价)

◎豆瓣链接 https://movie.douban.com/subject/1293213/

◎片 长 114分钟

◎导 演 亨利-乔治·克鲁佐 Henri-Georges Clouzot (id:1068387)

◎编 剧 皮埃尔·布瓦洛 Pierre Boileau (id:1045915)

托马·纳西雅克 Thomas Narcejac (id:1010896)

亨利-乔治·克鲁佐 Henri-Georges Clouzot (id:1068387)

弗雷德里克·格伦德尔 Frédéric Grendel (id:1013508)

◎演 员 西蒙·西涅莱 Simone Signoret (id:1002731)

薇拉·克劳佐 Véra Clouzot (id:1014055)

保罗·默里斯 Paul Meurisse (id:1037201)

夏尔·瓦内尔 Charles Vanel (id:1025398)

让·布罗沙尔 Jean Brochard (id:1073049)

Thérèse Dorny Thérèse Dorny (id:1088581)

米歇尔·塞罗尔 Michel Serrault (id:1007148)

乔治·沙马拉 Georges Chamarat (id:1070257)

罗贝尔·达尔邦 Robert Dalban (id:1074537)

Camille Guérini Camille Guérini (id:1101224)

雅克·黑林 Jacques Hilling (id:1101472)

让·勒费弗尔 Jean Lefebvre (id:1103709)

让·特默森 Jean Témerson (id:1149356)

雅克·瓦雷纳 Jacques Varennes (id:1158891)

乔吉斯·伯乔利 Georges Poujouly (id:1005572)

Yves-Marie Maurin Yves-Marie Maurin (id:1120049)

诺埃尔·罗克韦尔 No?l Roquevert (id:1137658)

皮埃尔·拉尔凯 Pierre Larquey (id:1107003)

Jean-Pierre Bonnefous Jean-Pierre Bonnefous (id:1063918)

Christian Brocard Christian Brocard (id:1078825)

让·克拉里厄 Jean Clarieux (id:1069168)

Henri Coutet Henri Coutet (id:1068653)

约翰尼·哈里戴 Johnny Hallyday (id:1018266)

Zappy Max Zappy Max (id:1120437)

Madeleine Suffel Madeleine Suffel (id:1158139)

Jimmy Urbain Jimmy Urbain (id:1157665)

亨利-乔治·克鲁佐 Henri-Georges Clouzot (id:1068387)

◎简 介

德拉萨尔寄宿学校里,女教师克里斯蒂娜和丈夫、校长米歇尔·德拉萨尔感情不偕,德拉萨尔对待他妻子也很粗暴。克里斯蒂娜经过长时间考虑,决定摆脱丈夫,在另一个教师、女友尼古尔的劝说下,她们决定实施一个谋杀计划……

  1. ##### MediaInfo ######

  2. General

  3. Unique ID : 213157940320579660730192783269139623736 (0xA05CB9DC19F6CCD19C9D74F40E5CAF38)

  4. Complete name : Les.Diaboliques.1955.BluRay.1080p.x265.10bit-MiniHD.mkv

  5. Format : Matroska

  6. Format version : Version 4

  7. File size : 3.78 GiB

  8. Duration : 1 h 57 min

  9. Overall bit rate : 4 623 kb/s

  10. Encoded date : UTC 2017-08-21 06:38:05

  11. Writing application : mkvmerge v11.0.0 ('Alive') 64bit

  12. Writing library : libebml v1.3.4 + libmatroska v1.4.5

  13. Video

  14. ID : 1

  15. Format : HEVC

  16. Format/Info : High Efficiency Video Coding

  17. Codec ID : V_MPEGH/ISO/HEVC

  18. Duration : 1 h 57 min

  19. Bit rate : 4 211 kb/s

  20. Width : 1 440 pixels

  21. Height : 1 080 pixels

  22. Display aspect ratio : 4:3

  23. Frame rate mode : Constant

  24. Frame rate : 23.976 (24000/1001/53354) FPS

  25. Bits/(Pixel*Frame) : 0.113

  26. Stream size : 3.45 GiB (91%)

  27. Default : Yes

  28. Forced : No

  29. Audio

  30. ID : 2

  31. Format : AC-3

  32. Format/Info : Audio Coding 3

  33. Commercial name : Dolby Digital

  34. Codec ID : A_AC3

  35. Duration : 1 h 57 min

  36. Bit rate mode : Constant

  37. Bit rate : 320 kb/s

  38. Channel(s) : 1 channel

  39. Channel layout : C

  40. Sampling rate : 48.0 kHz

  41. Frame rate : 31.250 FPS (1536 SPF)

  42. Compression mode : Lossy

  43. Stream size : 268 MiB (7%)

  44. Language : French

  45. Service kind : Complete Main

  46. Default : Yes

  47. Forced : No

  48. Text #1

  49. ID : 3

  50. Format : PGS

  51. Muxing mode : zlib

  52. Codec ID : S_HDMV/PGS

  53. Codec ID/Info : Picture based subtitle format used on BDs/HD-DVDs

  54. Language : English

  55. Default : Yes

  56. Forced : No

  57. Text #2

  58. ID : 4

  59. Format : PGS

  60. Muxing mode : zlib

  61. Codec ID : S_HDMV/PGS

  62. Codec ID/Info : Picture based subtitle format used on BDs/HD-DVDs

  63. Language : Chinese

  64. Default : No

  65. Forced : No

  66. Text #3

  67. ID : 5

  68. Format : PGS

  69. Muxing mode : zlib

  70. Codec ID : S_HDMV/PGS

  71. Codec ID/Info : Picture based subtitle format used on BDs/HD-DVDs

  72. Language : Chinese

  73. Default : No

  74. Forced : No

  75. Menu

  76. 00:00:00.000 : en:Chapter 01

  77. 00:03:51.272 : en:Chapter 02

  78. 00:06:41.109 : en:Chapter 03

  79. 00:10:39.972 : en:Chapter 04

  80. 00:15:51.784 : en:Chapter 05

  81. 00:19:57.446 : en:Chapter 06

  82. 00:23:40.460 : en:Chapter 07

  83. 00:25:59.182 : en:Chapter 08

  84. 00:31:03.486 : en:Chapter 09

  85. 00:41:09.633 : en:Chapter 10

  86. 00:44:09.855 : en:Chapter 11

  87. 00:47:54.997 : en:Chapter 12

  88. 00:51:03.977 : en:Chapter 13

  89. 00:53:49.225 : en:Chapter 14

  90. 00:57:58.808 : en:Chapter 15

  91. 01:00:53.399 : en:Chapter 16

  92. 01:05:34.138 : en:Chapter 17

  93. 01:09:11.730 : en:Chapter 18

  94. 01:15:28.148 : en:Chapter 19

  95. 01:18:50.559 : en:Chapter 20

  96. 01:22:53.176 : en:Chapter 21

  97. 01:29:16.642 : en:Chapter 22

  98. 01:32:16.739 : en:Chapter 23

  99. 01:36:40.836 : en:Chapter 24

  100. 01:42:11.416 : en:Chapter 25

  101. 01:45:45.839 : en:Chapter 26

  102. 01:52:34.873 : en:Chapter 27

  103. 01:55:46.272 : en:Chapter 28


复制代码


TAGS 剧情 惊悚 悬疑 犯罪 /

磁力链:
  • magnet:?xt=urn:btih:E5086320AD181E308783FEDEA28217D1CF516625
上传的附件:
BT9527电影天堂 1、BT9527电影天堂提供的BT文件均来源于互联网抓取,只供网友学习交流、技术提升使用。
2、我们遵守BitTorrent点对点协议原则,任何版权问题请联系原资源发布商,我们不处理任何版权纠纷,谢谢!如有争议请联系邮箱:BT9527#hotmail.com(#换成@)
3、如果您发现某页面或地址有错误,请联系站长邮箱BT9527#hotmail.com(#换成@),我们会尽快处理。您的热心是对BT9527电影天堂最大的支持。
4、本站建议去正规影院观看电影以支持电影行业发展。
最新回复 (0)

你可以在 登录 or 注册 后,对此帖发表评论!

返回
发新帖