六十一号的恐怖[简繁英字幕].The.Scary.of.Sixty-First.2021.1080p.BluRay.DTS.x265-10bit-ENTHD 6.34GB

版主小s 26天前 150



◎译  名 六十一号的恐怖
◎片  名 The Scary of Sixty-First
◎年  代 2021
◎产  地 美国
◎类  别 悬疑 / 恐怖
◎语  言 英语
◎上映日期 2021-03-02(柏林电影节)
◎IMDb链接 https://www.imdb.com/title/tt12226872/
◎豆瓣评分 4.9/10 (888人评价)
◎豆瓣链接 https://movie.douban.com/subject/35270406/
◎片  长 81分钟
◎导  演 达莎·内克拉索娃 Dasha Nekrasova (id:1431498)
◎编  剧 达莎·内克拉索娃 Dasha Nekrasova (id:1431498)
◎演  员 达莎·内克拉索娃 Dasha Nekrasova (id:1431498)
       亚伦·达拉·维拉 Aaron Dalla Villa (id:1409083)
       Michael M. Bilandic Michael M. Bilandic (id:1335921)
       鲁比·麦考利斯特 Ruby McCollister (id:1389492)
       贝西·布朗 Betsey Brown (id:1465934)
       玛德琳·奎茵 Madeline Quinn (id:1467133)

◎简  介
  Two roommates' lives begin to unravel after moving into a mysterious apartment on the Upper East Side of Manhattan.

◎获奖情况 (共3项)
  第71届柏林国际电影节 (2021)
  最佳处女作奖
   └──达莎·内克拉索娃 (id:1431498)
  遇见单元 最佳影片(提名)
   └──达莎·内克拉索娃 (id:1431498)
  泰迪熊奖 最佳电影(提名)
   └──达莎·内克拉索娃 (id:1431498)

  1. ##### MediaInfo ######
  2. General
  3. Unique ID                                : 2792455754448736875014475710742158881 (0x219CEB2C9B42219A7B392270B745E21)
  4. Complete name                            : The.Scary.of.Sixty-First.2021.1080p.BluRay.DTS.x265-10bit-ENTHD.mkv
  5. Format                                   : Matroska
  6. Format version                           : Version 4
  7. File size                                : 6.34 GiB
  8. Duration                                 : 1 h 21 min
  9. Overall bit rate                         : 11.1 Mb/s
  10. Movie name                               : The Scary of Sixty-First 2021 1080p BluRay DTS x265-10bit-HDS
  11. Encoded date                             : UTC 2022-06-02 06:58:08
  12. Writing application                      : mkvmerge v67.0.0 ('Under Stars') 64-bit
  13. Writing library                          : libebml v1.4.2 + libmatroska v1.6.4
  14. Video
  15. ID                                       : 1
  16. Format                                   : HEVC
  17. Format/Info                              : High Efficiency Video Coding
  18. Format profile                           : Main 10@L5.1@High
  19. Codec ID                                 : V_MPEGH/ISO/HEVC
  20. Duration                                 : 1 h 21 min
  21. Bit rate                                 : 9 521 kb/s
  22. Width                                    : 1 920 pixels
  23. Height                                   : 1 036 pixels
  24. Display aspect ratio                     : 1.85:1
  25. Frame rate mode                          : Constant
  26. Frame rate                               : 23.976 (24000/1001/53354) FPS
  27. Color space                              : YUV
  28. Chroma subsampling                       : 4:2:0
  29. Bit depth                                : 10 bits
  30. Bits/(Pixel*Frame)                       : 0.200
  31. Stream size                              : 5.44 GiB (86%)
  32. Title                                    : venjulegt@HDSky
  33. Writing library                          : x265 - H.265/HEVC codec
  34. Default                                  : Yes
  35. Forced                                   : No
  36. Audio
  37. ID                                       : 2
  38. Format                                   : DTS
  39. Format/Info                              : Digital Theater Systems
  40. Codec ID                                 : A_DTS
  41. Duration                                 : 1 h 21 min
  42. Bit rate mode                            : Constant
  43. Bit rate                                 : 1 509 kb/s
  44. Channel(s)                               : 6 channels
  45. Channel layout                           : C L R Ls Rs LFE
  46. Sampling rate                            : 48.0 kHz
  47. Frame rate                               : 93.750 FPS (512 SPF)
  48. Bit depth                                : 24 bits
  49. Compression mode                         : Lossy
  50. Stream size                              : 883 MiB (14%)
  51. Title                                    : English
  52. Language                                 : English
  53. Default                                  : Yes
  54. Forced                                   : No
  55. Text #1
  56. ID                                       : 3
  57. Format                                   : PGS
  58. Muxing mode                              : zlib
  59. Codec ID                                 : S_HDMV/PGS
  60. Codec ID/Info                            : Picture based subtitle format used on BDs/HD-DVDs
  61. Duration                                 : 1 h 13 min
  62. Bit rate                                 : 33.0 kb/s
  63. Count of elements                        : 1304
  64. Stream size                              : 17.4 MiB (0%)
  65. Title                                    : CHS
  66. Language                                 : Chinese
  67. Default                                  : Yes
  68. Forced                                   : No
  69. Text #2
  70. ID                                       : 4
  71. Format                                   : PGS
  72. Muxing mode                              : zlib
  73. Codec ID                                 : S_HDMV/PGS
  74. Codec ID/Info                            : Picture based subtitle format used on BDs/HD-DVDs
  75. Duration                                 : 1 h 13 min
  76. Bit rate                                 : 34.3 kb/s
  77. Count of elements                        : 1304
  78. Stream size                              : 18.0 MiB (0%)
  79. Title                                    : CHT
  80. Language                                 : Chinese
  81. Default                                  : Yes
  82. Forced                                   : No
  83. Text #3
  84. ID                                       : 5
  85. Format                                   : PGS
  86. Muxing mode                              : zlib
  87. Codec ID                                 : S_HDMV/PGS
  88. Codec ID/Info                            : Picture based subtitle format used on BDs/HD-DVDs
  89. Duration                                 : 1 h 20 min
  90. Bit rate                                 : 31.3 kb/s
  91. Count of elements                        : 2074
  92. Stream size                              : 18.0 MiB (0%)
  93. Title                                    : ENG
  94. Language                                 : English
  95. Default                                  : Yes
  96. Forced                                   : No
  97. Menu
  98. 00:00:00.000                             : en:第 01 章
  99. 00:10:24.749                             : en:第 02 章
  100. 00:19:53.567                             : en:第 03 章
  101. 00:33:32.886                             : en:第 04 章
  102. 00:45:15.630                             : en:第 05 章
  103. 00:58:18.495                             : en:第 06 章
  104. 01:08:47.123                             : en:第 07 章
  105. 01:19:00.819                             : en:第 08 章
复制代码




TAGS 恐怖 悬疑 /

磁力链:
  • magnet:?xt=urn:btih:DDC8712E8C27FC973FD54BED2B3542624CF586AB
上传的附件:
BT9527电影天堂 1、BT9527电影天堂提供的BT文件均来源于互联网抓取,只供网友学习交流、技术提升使用。
2、我们遵守BitTorrent点对点协议原则,任何版权问题请联系原资源发布商,我们不处理任何版权纠纷,谢谢!如有争议请联系邮箱:BT9527#hotmail.com(#换成@)
3、如果您发现某页面或地址有错误,请联系站长邮箱BT9527#hotmail.com(#换成@),我们会尽快处理。您的热心是对BT9527电影天堂最大的支持。
4、本站建议去正规影院观看电影以支持电影行业发展。
最新回复 (0)

你可以在 登录 or 注册 后,对此帖发表评论!

返回
发新帖