伴侣度假村[简繁英字幕].Couples.Retreat.2009.1080p.BluRay.DTS.x265-10bit-ENTHD 7.35GB

版主小s 23天前 250

◎译 名 伴侣度假村 / 蜜月生还者

◎片 名 Couples Retreat

◎年 代 2009

◎产 地 美国

◎类 别 喜剧

◎语 言 英语

◎上映日期 2009-10-08

◎IMDb链接 https://www.imdb.com/title/tt1078940/

◎豆瓣评分 6.0/10 (5816人评价)

◎豆瓣链接 https://movie.douban.com/subject/3073281/

◎片 长 113 分钟

◎导 演 彼得·比灵斯雷 Peter Billingsley (id:1000178)

◎编 剧 乔恩·费儒 Jon Favreau (id:1027164)

文斯·沃恩 Vince Vaughn (id:1002673)

◎演 员 杰森·贝特曼 Jason Bateman (id:1013760)

克里斯汀·贝尔 Kristen Bell (id:1031240)

费松·拉夫 Faizon Love (id:1018003)

文斯·沃恩 Vince Vaughn (id:1002673)

乔恩·费儒 Jon Favreau (id:1027164)

让·雷诺 Jean Reno (id:1025182)

艾米·希尔 Amy Hill (id:1092451)

乔·比斯科 Joy Bisco (id:1028108)

郑肯 Ken Jeong (id:1275017)

特穆拉·莫里森 Temuera Morrison (id:1013898)

凯蒂·斯特格曼 Katie Stegeman (id:1326702)

詹姆斯·弗瑞斯 James Ferris (id:1328212)

阿莉莎·茱莉亚·史密斯 Alyssa Julya Smith (id:1333935)

彼得·塞拉菲诺威茨 Peter Serafinowicz (id:1010635)

约翰·迈克尔·辛吉斯 John Michael Higgins (id:1009214)

克里斯汀·戴维斯 Kristin Davis (id:1031811)

塔莎·史密斯 Tasha Smith (id:1031982)

贾斯汀·迪利 Justin Deeley (id:1080622)

玛琳·阿克曼 Malin Akerman (id:1058055)

布伦丹·维恩 Brendan Wayne (id:1179077)

罗伯特·保罗·泰勒 Robert Paul Taylor (id:1195569)

卡洛斯·庞丝 Carlos Ponce (id:1049706)

Marketa Janska Marketa Janska (id:1200186)

Janna Fassaert Janna Fassaert (id:1202493)

迈克尔·帕特里克·布林 Michael Patrick Breen (id:1227209)

娜塔莉娜·马乔 Natalina Maggio (id:1231032)

阿内丽丝·海因茨 Aneliese Heinz (id:1239505)

Daniel Cage Theodore (id:1241416)

Nelson Carvajal (id:1244084)

Joe DeVito Joe DeVito (id:1045405)

亚历克西斯·克纳普 Alexis Knapp (id:1319971)

文斯·沃恩 Vince Vaughn (id:1002673)

Guy Riedel Guy Riedel (id:1295645)

A·R·拉曼 A.R. Rahman (id:1014044)

埃里克·艾伦·爱德华兹 Eric Alan Edwards (id:1025542)

丹·勒邦塔尔 Dan Lebental (id:1289612)

萨拉·芬兰 Sarah Finn (id:1283741)

兰迪·希勒 Randi Hiller (id:1286647)

Curt Beech Curt Beech (id:1307780)

克林特·华莱士 Clint Wallace (id:1305204)

谢泼德·弗兰克尔 Shepherd Frankel (id:1050964)

苏珊·马瑟森 Susan Matheson (id:1450159)

Steve Artmont Steve Artmont (id:1277467)

Cheryl Ann Nick Cheryl Ann Nick (id:1055731)

Heather Plott Heather Plott (id:1130566)

Natasha Ladek Natasha Ladek (id:1289234)

Todd Perry Todd Perry (id:1129039)

帕特里克·克兰斯 Patrick Clancey (id:1071903)

贾斯汀·琼斯 Justin Jones (id:1199192)

米奇·保尔森 Mitch Paulson (id:1247602)

杰米·迪克森 Jamie Dixon (id:1282492)

丹尼尔·梅利兹 Daniel Mellitz (id:1115758)

乔尔·梅里特 Joel Merritt (id:1291890)

丹尼尔·萨迪克 Daniel Sudick (id:1298615)

◎简 介

婚前热情如火的情侣们,婚后却未必如此。当柴米油盐取代了浓情蜜意,生活的裂缝就渐渐暴露出来:杰森(杰森·贝特曼 Jason Bateman 饰)与妻子辛西娅(克里斯汀·贝尔 Kristen Bell 饰)因为不孕症考虑离婚,乔伊(乔恩·费儒 Jon Favreau 饰)和露西也已经对对方身体没有兴趣,戴夫(文斯·沃恩 Vince Vaughn 饰)和萝尼则整日被房子和孩子的压力弄得心烦意乱。眼看曾经令人艳羡的婚姻就要面临崩溃,杰森夫妇决定最后一搏,他们费尽心力想出一个度假疗法,说服几对欢喜冤家们前往一个热带小岛二度蜜月。异国的碧海蓝天似乎让这些中年夫妇又重拾热情,但度假村老板马塞尔(让·雷诺 Jean Reno 饰)提供的硬性课程又让他们摸不着头脑:雷人不浅的猛男瑜伽、夫妻按摩、与鲨同游真的能唤醒这些夫妻的情感,拯救他们的婚姻么?

◎获奖情况 (共2项)

第12届美国青少年选择奖 (2010)

最佳喜剧片女演员(提名)

└──克里斯汀·贝尔 (id:1031240)

Choice Movie: Hissy Fit(提名)

└──文斯·沃恩 (id:1002673)

  1. ##### MediaInfo ######

  2. General

  3. Unique ID : 181950324963551098850378288955572666122 (0x88E25BA0E564A40B45FCFC8545A4BF0A)

  4. Complete name : Couples.Retreat.2009.1080p.BluRay.DTS.x265-10bit-ENTHD.mkv

  5. Format : Matroska

  6. Format version : Version 4

  7. File size : 7.35 GiB

  8. Duration : 1 h 53 min

  9. Overall bit rate : 9 256 kb/s

  10. Movie name : Couples Retreat 2009 1080p BluRay DTS x265-10bit-HDS

  11. Encoded date : UTC 2022-06-01 11:28:22

  12. Writing application : mkvmerge v67.0.0 ('Under Stars') 64-bit

  13. Writing library : libebml v1.4.2 + libmatroska v1.6.4

  14. Video

  15. ID : 1

  16. Format : HEVC

  17. Format/Info : High Efficiency Video Coding

  18. Format profile : Main 10@L5.1@High

  19. Codec ID : V_MPEGH/ISO/HEVC

  20. Duration : 1 h 53 min

  21. Bit rate : 7 647 kb/s

  22. Width : 1 920 pixels

  23. Height : 1 040 pixels

  24. Display aspect ratio : 1.85:1

  25. Frame rate mode : Constant

  26. Frame rate : 23.976 (24000/1001/53354) FPS

  27. Color space : YUV

  28. Chroma subsampling : 4:2:0

  29. Bit depth : 10 bits

  30. Bits/(Pixel*Frame) : 0.160

  31. Stream size : 6.07 GiB (83%)

  32. Title : szlcug@HDSky

  33. Writing library : x265 - H.265/HEVC codec

  34. Default : Yes

  35. Forced : No

  36. Audio

  37. ID : 2

  38. Format : DTS

  39. Format/Info : Digital Theater Systems

  40. Codec ID : A_DTS

  41. Duration : 1 h 53 min

  42. Bit rate mode : Constant

  43. Bit rate : 1 509 kb/s

  44. Channel(s) : 6 channels

  45. Channel layout : C L R Ls Rs LFE

  46. Sampling rate : 48.0 kHz

  47. Frame rate : 93.750 FPS (512 SPF)

  48. Bit depth : 24 bits

  49. Compression mode : Lossy

  50. Stream size : 1.20 GiB (16%)

  51. Title : English

  52. Language : English

  53. Default : Yes

  54. Forced : No

  55. Text #1

  56. ID : 3

  57. Format : PGS

  58. Muxing mode : zlib

  59. Codec ID : S_HDMV/PGS

  60. Codec ID/Info : Picture based subtitle format used on BDs/HD-DVDs

  61. Duration : 1 h 53 min

  62. Bit rate : 69.2 kb/s

  63. Count of elements : 4844

  64. Stream size : 56.1 MiB (1%)

  65. Title : ENG

  66. Language : English

  67. Default : Yes

  68. Forced : No

  69. Text #2

  70. ID : 4

  71. Format : PGS

  72. Muxing mode : zlib

  73. Codec ID : S_HDMV/PGS

  74. Codec ID/Info : Picture based subtitle format used on BDs/HD-DVDs

  75. Duration : 1 h 50 min

  76. Bit rate : 62.8 kb/s

  77. Count of elements : 4620

  78. Stream size : 49.9 MiB (1%)

  79. Title : CHS

  80. Language : Chinese

  81. Default : Yes

  82. Forced : No

  83. Text #3

  84. ID : 5

  85. Format : PGS

  86. Muxing mode : zlib

  87. Codec ID : S_HDMV/PGS

  88. Codec ID/Info : Picture based subtitle format used on BDs/HD-DVDs

  89. Duration : 1 h 50 min

  90. Bit rate : 65.0 kb/s

  91. Count of elements : 4618

  92. Stream size : 51.6 MiB (1%)

  93. Title : CHT

  94. Language : Chinese

  95. Default : Yes

  96. Forced : No

  97. Menu

  98. 00:00:00.000 : en:第 01 章

  99. 00:05:52.185 : en:第 02 章

  100. 00:10:46.604 : en:第 03 章

  101. 00:18:19.557 : en:第 04 章

  102. 00:23:17.396 : en:第 05 章

  103. 00:28:06.977 : en:第 06 章

  104. 00:33:49.444 : en:第 07 章

  105. 00:38:37.315 : en:第 08 章

  106. 00:45:11.834 : en:第 09 章

  107. 00:47:37.188 : en:第 10 章

  108. 00:51:36.885 : en:第 11 章

  109. 00:56:23.297 : en:第 12 章

  110. 01:02:22.739 : en:第 13 章

  111. 01:08:35.737 : en:第 14 章

  112. 01:11:29.368 : en:第 15 章

  113. 01:18:53.979 : en:第 16 章

  114. 01:30:02.939 : en:第 17 章

  115. 01:36:07.428 : en:第 18 章

  116. 01:43:57.565 : en:第 19 章

  117. 01:48:50.065 : en:第 20 章


复制代码


TAGS 喜剧

磁力链:
  • magnet:?xt=urn:btih:0558DD79CDDFE7C73FD6E451CD52AFDE5E5A34B2
上传的附件:
BT9527电影天堂 1、BT9527电影天堂提供的BT文件均来源于互联网抓取,只供网友学习交流、技术提升使用。
2、我们遵守BitTorrent点对点协议原则,任何版权问题请联系原资源发布商,我们不处理任何版权纠纷,谢谢!如有争议请联系邮箱:BT9527#hotmail.com(#换成@)
3、如果您发现某页面或地址有错误,请联系站长邮箱BT9527#hotmail.com(#换成@),我们会尽快处理。您的热心是对BT9527电影天堂最大的支持。
4、本站建议去正规影院观看电影以支持电影行业发展。
最新回复 (0)

你可以在 登录 or 注册 后,对此帖发表评论!

返回
发新帖