怦然心动[国英多音轨/简繁英字幕].Flipped.2010.BluRay.1080p.x265.10bit.2Audio-MiniHD 4.55GB

版主小s 26天前 146

◎译 名 怦然心动 / 萌动青春 / 青春萌动 / 冒失 / 梧桐树之恋

◎片 名 Flipped

◎年 代 2010

◎产 地 美国

◎类 别 剧情 / 喜剧 / 爱情

◎语 言 英语

◎上映日期 2010-07-26(好莱坞首映) / 2010-09-10(美国)

◎IMDb链接 https://www.imdb.com/title/tt0817177/

◎豆瓣评分 9.1/10 (1670585人评价)

◎豆瓣链接 https://movie.douban.com/subject/3319755/

◎片 长 90分钟

◎导 演 罗伯·莱纳 Rob Reiner (id:1031903)

◎编 剧 罗伯·莱纳 Rob Reiner (id:1031903)

安德鲁·沙因曼 Andrew Scheinman (id:1276019)

文德琳·范·德拉安南 Wendelin Van Draanen (id:1014692)

◎演 员 玛德琳·卡罗尔 Madeline Carroll (id:1031867)

卡兰·麦克奥利菲 Callan McAuliffe (id:1004751)

瑞贝卡·德·莫妮 Rebecca De Mornay (id:1049546)

安东尼·爱德华兹 Anthony Edwards (id:1055414)

约翰·马奥尼 John Mahoney (id:1054959)

佩内洛普·安·米勒 Penelope Ann Miller (id:1013868)

艾丹·奎因 Aidan Quinn (id:1031890)

凯文·韦斯曼 Kevin Weisman (id:1014032)

摩根·莉莉 Morgan Lily (id:1000182)

瑞安·克茨纳 Ryan Ketzner (id:1276020)

吉莉安·普法夫 Gillian Pfaff (id:1276021)

迈克尔·博萨 Michael Boza (id:1276022)

博·勒纳 Beau Lerner (id:1276023)

杰奎琳·埃沃拉 Jacquelyn Evola (id:1276024)

泰勒·格鲁秀斯 Taylor Groothuis (id:1276025)

艾莉·布莱恩特 Elly Bryant (id:1276026)

阿什莉·泰勒 Ashley Taylor (id:1276027)

伊瑟尔·布罗萨德 Israel Broussard (id:1023036)

科迪·霍恩 Cody Horn (id:1276028)

迈克尔·博尔顿 Michael Bolten (id:1022965)

肖恩·哈珀 Shane Harper (id:1238165)

斯戴芬妮·斯考特 Stefanie Scott (id:1036534)

帕特丽夏·伦茨 Patricia Lentz (id:1390240)

马修·戈尔德 Matthew Gold (id:1233459)

阿罗拉·凯瑟琳·史密斯 Alora Catherine Smith (id:1390241)

凯莉·唐纳利 Kelley Donnelly (id:1390242)

索菲亚·撒高 Sophina Saggau (id:1390243)

米歇尔·梅斯默 Michele Messmer (id:1390244)

斯科特·乔尔·吉兹基 Scott Joel Gizicki (id:1266903)

罗德·迈尔斯 Rod Myers (id:1327187)

卡拉 帕西托 Kara Pacitto (id:1248195)

凯特琳·帕西托 Katelyn Pacitto (id:1258662)

罗伯·莱纳 Rob Reiner (id:1031903)

马克·夏曼 Marc Shaiman (id:1027631)

◎简 介

布莱斯(卡兰?麦克奥利菲 Callan McAuliffe 饰)全家搬到小镇,邻家女孩朱丽(玛德琳?卡罗尔 Madeline Carroll 饰)前来帮忙。她对他一见钟情,心愿是获得他的吻。两人是同班同学,她一直想方设法接近他,但是他避之不及。她喜欢爬在高高的梧桐树上看风景。但因为施工,树被要被砍掉,她誓死捍卫,希望他并肩作战,但是他退缩了。她的事迹上了报纸,外公对她颇有好感,令他十分困惑。她凭借鸡下蛋的项目获得了科技展第一名,成了全场焦点,令他黯然失色。她把自家鸡蛋送给他,他听家人怀疑她家鸡蛋不卫生,便偷偷把鸡蛋丢掉。她得知真相,很伤心,两人关系跌入冰点。她跟家人诉说,引发争吵。原来父亲一直攒钱照顾傻弟弟,所以生活拮据。她理解了父母,自己动手,还得到了他外公的鼎力相助。他向她道歉,但是并未解决问题。他开始关注她。鸡蛋风波未平,家庭晚宴与午餐男孩评选...

◎获奖情况 (共1项)

第6届豆瓣电影年度榜单 (2019)

2010s电影(提名)

  1. ##### MediaInfo ######

  2. General

  3. Unique ID : 224529581934571539998038083424449416749 (0xA8EAD3140F921A61843FA3304FDB4E2D)

  4. Complete name : Flipped.2010.BluRay.1080p.x265.10bit.2Audio-MiniHD.mkv

  5. Format : Matroska

  6. Format version : Version 2

  7. File size : 4.55 GiB

  8. Duration : 1 h 33 min

  9. Overall bit rate : 6 998 kb/s

  10. Encoded date : UTC 2017-11-29 12:46:09

  11. Writing application : mkvmerge v18.0.0 ('Apricity') 64-bit

  12. Writing library : libebml v1.3.5 + libmatroska v1.4.8

  13. Video

  14. ID : 1

  15. Format : HEVC

  16. Format/Info : High Efficiency Video Coding

  17. Format profile : Main 10@L4@High

  18. Codec ID : V_MPEGH/ISO/HEVC

  19. Duration : 1 h 29 min

  20. Bit rate : 6 010 kb/s

  21. Width : 1 920 pixels

  22. Height : 1 080 pixels

  23. Display aspect ratio : 16:9

  24. Frame rate mode : Constant

  25. Frame rate : 23.976 (24000/1001/53354) FPS

  26. Color space : YUV

  27. Chroma subsampling : 4:2:0

  28. Bit depth : 10 bits

  29. Bits/(Pixel*Frame) : 0.121

  30. Stream size : 3.77 GiB (83%)

  31. Title : Flipped.2010.hevc

  32. Writing library : x265 2.5+6-gfe8703dcb+15:[Windows][GCC 7.1.0][64 bit] Asuna 10bit

  33. Encoding settings : cpuid=533541173503 / frame-threads=4 / numa-pools=16 / wpp / no-pmode / no-pme / no-psnr / no-ssim / log-level=4 / csvfn=D:\Video\m2ts\Flipped\265.log / csv-log-level=0 / input-csp=1 / input-res=1920x1080 / interlace=0 / total-frames=129116 / level-idc=0 / high-tier=1 / uhd-bd=0 / ref=5 / no-allow-non-conformance / no-repeat-headers / annexb / no-aud / no-hrd / info / hash=0 / no-temporal-layers / no-open-gop / min-keyint=1 / keyint=360 / bframes=8 / b-adapt=2 / b-pyramid / bframe-bias=0 / rc-lookahead=60 / lookahead-slices=4 / NTMzNTQ=uuDQuD2mJt9fsCf / scenecut=40 / no-intra-refresh / ctu=32 / min-cu-size=8 / no-rect / no-amp / max-tu-size=16 / tu-inter-depth=2 / tu-intra-depth=2 / limit-tu=4 / rdoq-level=2 / dynamic-rd=0.00 / ssim-rd / signhide / no-tskip / nr-intra=0 / nr-inter=0 / no-constrained-intra / no-strong-intra-smoothing / max-merge=3 / limit-refs=2 / limit-modes / me=3 / subme=5 / merange=25 / temporal-mvp / weightp / weightb / no-analyze-src-pics / deblock=-1:-1 / no-sao / no-sao-non-deblock / rd=4 / no-early-skip / rskip / no-fast-intra / no-tskip-fast / no-cu-lossless / b-intra / rdpenalty=1 / psy-rd=1.50 / psy-rdoq=1.80 / no-rd-refine / analysis-reuse-mode=0 / no-lossless / cbqpoffs=-2 / crqpoffs=-2 / rc=crf / crf=20.0000 / qcomp=0.65 / qpstep=4 / stats-write=0 / stats-read=0 / vbv-maxrate=18000 / vbv-bufsize=20000 / vbv-init=0.9 / crf-max=0.0 / crf-min=0.0 / ipratio=1.40 / pbratio=1.30 / aq-mode=2 / aq-strength=0.90 / cutree / zone-count=0 / no-strict-cbr / qg-size=16 / no-rc-grain / qpmax=69 / qpmin=0 / no-const-vbv / sar=0 / overscan=0 / videoformat=5 / range=0 / colorprim=1 / transfer=2 / colormatrix=2 / chromaloc=0 / display-window=0 / max-cll=0,0 / min-luma=0 / max-luma=1023 / log2-max-poc-lsb=8 / vui-timing-info / vui-hrd-info / slices=1 / opt-qp-pps / opt-ref-list-length-pps / no-multi-pass-opt-rps / scenecut-bias=0.05 / no-opt-cu-delta-qp / no-aq-motion / no-hdr / no-hdr-opt / no-dhdr10-opt / analysis-reuse-level=5 / scale-factor=0 / refine-intra=0 / refine-inter=0 / refine-mv=0 / no-limit-sao / ctu-info=0

  34. Default : Yes

  35. Forced : No

  36. Color range : Limited

  37. Color primaries : BT.709

  38. Audio #1

  39. ID : 2

  40. Format : AC-3

  41. Format/Info : Audio Coding 3

  42. Commercial name : Dolby Digital

  43. Codec ID : A_AC3

  44. Duration : 1 h 29 min

  45. Bit rate mode : Constant

  46. Bit rate : 640 kb/s

  47. Channel(s) : 6 channels

  48. Channel layout : L R C LFE Ls Rs

  49. Sampling rate : 48.0 kHz

  50. Frame rate : 31.250 FPS (1536 SPF)

  51. Compression mode : Lossy

  52. Stream size : 411 MiB (9%)

  53. Title : Flipped.2010.ac3.english

  54. Language : English

  55. Service kind : Complete Main

  56. Default : Yes

  57. Forced : No

  58. Audio #2

  59. ID : 3

  60. Format : AC-3

  61. Format/Info : Audio Coding 3

  62. Commercial name : Dolby Digital

  63. Codec ID : A_AC3

  64. Duration : 1 h 29 min

  65. Bit rate mode : Constant

  66. Bit rate : 448 kb/s

  67. Channel(s) : 6 channels

  68. Channel layout : L R C LFE Ls Rs

  69. Sampling rate : 48.0 kHz

  70. Frame rate : 31.250 FPS (1536 SPF)

  71. Compression mode : Lossy

  72. Stream size : 288 MiB (6%)

  73. Title : Flipped.2010.ac3.chinese

  74. Service kind : Complete Main

  75. Default : No

  76. Forced : No

  77. Text #1

  78. ID : 4

  79. Format : PGS

  80. Muxing mode : zlib

  81. Codec ID : S_HDMV/PGS

  82. Codec ID/Info : Picture based subtitle format used on BDs/HD-DVDs

  83. Duration : 1 h 26 min

  84. Bit rate : 120 kb/s

  85. Count of elements : 5001

  86. Stream size : 73.8 MiB (2%)

  87. Title : Flipped.2010.chs

  88. Language : Chinese

  89. Default : Yes

  90. Forced : No

  91. Text #2

  92. ID : 5

  93. Format : PGS

  94. Muxing mode : zlib

  95. Codec ID : S_HDMV/PGS

  96. Codec ID/Info : Picture based subtitle format used on BDs/HD-DVDs

  97. Duration : 1 h 32 min

  98. Bit rate : 108 kb/s

  99. Count of elements : 4195

  100. Stream size : 71.7 MiB (2%)

  101. Title : Flipped.2010.cht

  102. Language : Chinese

  103. Default : No

  104. Forced : No

  105. Text #3

  106. ID : 6

  107. Format : PGS

  108. Muxing mode : zlib

  109. Codec ID : S_HDMV/PGS

  110. Codec ID/Info : Picture based subtitle format used on BDs/HD-DVDs

  111. Duration : 1 h 28 min

  112. Bit rate : 50.8 kb/s

  113. Count of elements : 3178

  114. Stream size : 32.3 MiB (1%)

  115. Title : Flipped.2010.eng

  116. Language : English

  117. Default : No

  118. Forced : No

  119. Menu

  120. 00:00:00.000 : en:Chapter 01

  121. 00:09:59.000 : en:Chapter 02

  122. 00:20:27.000 : en:Chapter 03

  123. 00:31:19.000 : en:Chapter 04

  124. 00:40:22.000 : en:Chapter 05

  125. 00:49:34.000 : en:Chapter 06

  126. 00:59:03.000 : en:Chapter 07

  127. 01:09:08.000 : en:Chapter 08

  128. 01:19:20.000 : en:Chapter 09

  129. 01:24:09.000 : en:Chapter 10

  130. 01:29:44.000 : en:Chapter 11


复制代码


TAGS 剧情 喜剧 爱情 /

磁力链:
  • magnet:?xt=urn:btih:D7614E6D95E9D50F00C5FA9A57D4CC3423082A92
上传的附件:
BT9527电影天堂 1、BT9527电影天堂提供的BT文件均来源于互联网抓取,只供网友学习交流、技术提升使用。
2、我们遵守BitTorrent点对点协议原则,任何版权问题请联系原资源发布商,我们不处理任何版权纠纷,谢谢!如有争议请联系邮箱:BT9527#hotmail.com(#换成@)
3、如果您发现某页面或地址有错误,请联系站长邮箱BT9527#hotmail.com(#换成@),我们会尽快处理。您的热心是对BT9527电影天堂最大的支持。
4、本站建议去正规影院观看电影以支持电影行业发展。
最新回复 (0)

你可以在 登录 or 注册 后,对此帖发表评论!

返回
发新帖