怒火青春[中英字幕].La.haine.1995.BluRay.1080p.x265.10bit-MiniHD 6.04GB

版主小s 1月前 136

◎译 名 怒火青春 / 仇恨 / 恨 / The Hate

◎片 名 La Haine

◎年 代 1995

◎产 地 法国

◎类 别 剧情 / 犯罪

◎语 言 法语

◎上映日期 1995-05-31

◎IMDb链接 https://www.imdb.com/title/tt0113247/

◎豆瓣评分 8.2/10 (15327人评价)

◎豆瓣链接 https://movie.douban.com/subject/1306449/

◎片 长 98分钟

◎导 演 马修·卡索维茨 Mathieu Kassovitz (id:1022733)

◎编 剧 马修·卡索维茨 Mathieu Kassovitz (id:1022733)

◎演 员 文森特·卡索 Vincent Cassel (id:1036377)

哈勃·孔黛 Hubert Koundé (id:1014363)

萨伊德·塔格马奥 Sa?d Taghmaoui (id:1010660)

文森特·林顿 Vincent Lindon (id:1010741)

嘉莲·维雅 Karin Viard (id:1005104)

克里斯朵夫·罗西尼翁 Christophe Rossignon (id:1296160)

马修·卡索维茨 Mathieu Kassovitz (id:1022733)

Gilles Sacuto Gilles Sacuto (id:1296448)

克里斯朵夫·罗西尼翁 Christophe Rossignon (id:1296160)

Pierre A?m Pierre A?m (id:1277638)

Virginie Montel Virginie Montel (id:1292363)

◎简 介

影片以1993年在巴黎18区发生的一起警察暴力的真实事件为背景:一名警察在巡逻期间枪杀了一名17岁的扎伊尔少年Makomé M'Bowolé。而在影片当中,巴黎街头,一群反政府青年。纠纷由其中一人被警察殴打重伤而起,众人怀恨在心。文兹(文森特·卡塞尔 Vincent Cassel饰)弄到一把真枪,决心还以颜色。他们的仇恨与愤怒随处可见,这场与警察之间的大规模冲突,一触即发。混战中,文兹被警察开枪打死,他的同党也颤抖着对准了警察的头,枪声响起……无论是警察还是街头混混,每个人都失去了控制。这青春期里的不安与躁动,就像失控的怒火一般,无人幸免。 导演马修·卡索维茨荣获第48届戛纳电影节(1995)主竞赛单元最佳导演奖。

◎获奖情况 (共2项)

第48届戛纳电影节 (1995)

主竞赛单元 金棕榈奖(提名)

└──马修·卡索维茨 (id:1022733)

主竞赛单元 最佳导演

└──马修·卡索维茨 (id:1022733)

  1. ##### MediaInfo ######

  2. General

  3. Unique ID : 223323710898403331508925446564093173582 (0xA802950BC93C87B8B595C80BF5B11F4E)

  4. Complete name : La.haine.1995.BluRay.1080p.x265.10bit-MiniHD.mkv

  5. Format : Matroska

  6. Format version : Version 4

  7. File size : 6.04 GiB

  8. Duration : 1 h 37 min

  9. Overall bit rate : 8 834 kb/s

  10. Encoded date : UTC 2017-06-01 13:21:50

  11. Writing application : mkvmerge v11.0.0 ('Alive') 64bit

  12. Writing library : libebml v1.3.4 + libmatroska v1.4.5

  13. Video

  14. ID : 1

  15. Format : HEVC

  16. Format/Info : High Efficiency Video Coding

  17. Codec ID : V_MPEGH/ISO/HEVC

  18. Duration : 1 h 37 min

  19. Bit rate : 8 147 kb/s

  20. Width : 1 920 pixels

  21. Height : 1 040 pixels

  22. Display aspect ratio : 1.85:1

  23. Frame rate mode : Constant

  24. Frame rate : 23.976 (24000/1001/53354) FPS

  25. Bits/(Pixel*Frame) : 0.170

  26. Stream size : 5.57 GiB (92%)

  27. Default : Yes

  28. Forced : No

  29. Audio

  30. ID : 2

  31. Format : AC-3

  32. Format/Info : Audio Coding 3

  33. Commercial name : Dolby Digital

  34. Codec ID : A_AC3

  35. Duration : 1 h 37 min

  36. Bit rate mode : Constant

  37. Bit rate : 640 kb/s

  38. Channel(s) : 6 channels

  39. Channel layout : L R C LFE Ls Rs

  40. Sampling rate : 48.0 kHz

  41. Frame rate : 31.250 FPS (1536 SPF)

  42. Compression mode : Lossy

  43. Stream size : 448 MiB (7%)

  44. Language : French

  45. Service kind : Complete Main

  46. Default : Yes

  47. Forced : No

  48. Text #1

  49. ID : 3

  50. Format : PGS

  51. Muxing mode : zlib

  52. Codec ID : S_HDMV/PGS

  53. Codec ID/Info : Picture based subtitle format used on BDs/HD-DVDs

  54. Duration : 1 h 36 min

  55. Bit rate : 13.1 kb/s

  56. Count of elements : 2433

  57. Stream size : 9.07 MiB (0%)

  58. Language : English

  59. Default : Yes

  60. Forced : No

  61. Text #2

  62. ID : 4

  63. Format : PGS

  64. Muxing mode : zlib

  65. Codec ID : S_HDMV/PGS

  66. Codec ID/Info : Picture based subtitle format used on BDs/HD-DVDs

  67. Duration : 1 h 36 min

  68. Bit rate : 15.9 kb/s

  69. Count of elements : 2986

  70. Stream size : 11.0 MiB (0%)

  71. Language : Chinese

  72. Default : No

  73. Forced : No

  74. Text #3

  75. ID : 5

  76. Format : PGS

  77. Muxing mode : zlib

  78. Codec ID : S_HDMV/PGS

  79. Codec ID/Info : Picture based subtitle format used on BDs/HD-DVDs

  80. Duration : 1 h 36 min

  81. Bit rate : 16.4 kb/s

  82. Count of elements : 2986

  83. Stream size : 11.3 MiB (0%)

  84. Language : Chinese

  85. Default : No

  86. Forced : No

  87. Menu

  88. 00:00:00.000 : en:Chapter 01

  89. 00:05:42.341 : en:Chapter 02

  90. 00:09:54.677 : en:Chapter 03

  91. 00:15:09.575 : en:Chapter 04

  92. 00:20:03.201 : en:Chapter 05

  93. 00:24:12.159 : en:Chapter 06

  94. 00:29:09.497 : en:Chapter 07

  95. 00:33:51.112 : en:Chapter 08

  96. 00:38:54.038 : en:Chapter 09

  97. 00:42:14.572 : en:Chapter 10

  98. 00:47:33.599 : en:Chapter 11

  99. 00:50:46.626 : en:Chapter 12

  100. 00:57:05.630 : en:Chapter 13

  101. 01:03:29.387 : en:Chapter 14

  102. 01:06:24.563 : en:Chapter 15

  103. 01:12:36.100 : en:Chapter 16

  104. 01:19:11.872 : en:Chapter 17

  105. 01:24:59.135 : en:Chapter 18

  106. 01:28:09.198 : en:Chapter 19

  107. 01:34:27.662 : en:Chapter 20


复制代码


TAGS 剧情 犯罪 /

磁力链:
  • magnet:?xt=urn:btih:7AA61D00C3176E5D6A2E53BB0DCD7F17518C8ED6
上传的附件:
BT9527电影天堂 1、BT9527电影天堂提供的BT文件均来源于互联网抓取,只供网友学习交流、技术提升使用。
2、我们遵守BitTorrent点对点协议原则,任何版权问题请联系原资源发布商,我们不处理任何版权纠纷,谢谢!如有争议请联系邮箱:BT9527#hotmail.com(#换成@)
3、如果您发现某页面或地址有错误,请联系站长邮箱BT9527#hotmail.com(#换成@),我们会尽快处理。您的热心是对BT9527电影天堂最大的支持。
4、本站建议去正规影院观看电影以支持电影行业发展。
最新回复 (0)

你可以在 登录 or 注册 后,对此帖发表评论!

返回
发新帖