忠犬八公物语[国日多音轨/中文字幕].Hachi-ko.1987.BluRay.1080p.x265.10bit.3Audio-MiniHD 5.17GB

版主小s 1月前 103

◎译 名 忠犬八公物语 / 八千公物语 / 阿八的故事 / 忠犬八公 / 八公犬的故事 / Hachi-ko

◎片 名 ハチ公物語

◎年 代 1987

◎产 地 日本

◎类 别 剧情

◎语 言 日语

◎上映日期 1987-08-01(日本)

◎IMDb链接 https://www.imdb.com/title/tt0093132/

◎豆瓣评分 9.2/10 (175918人评价)

◎豆瓣链接 https://movie.douban.com/subject/1959195/

◎片 长 107 分钟

◎导 演 神山征二郎 Seijir? K?yama (id:1289170)

◎编 剧 新藤兼人 Kaneto Shind? (id:1145836)

◎演 员 山本圭 Kei Yamamoto (id:1012812)

井川比佐志 Hisashi Igawa (id:1042429)

片桐入 Hairi Katagiri (id:1015257)

仲代达矢 Tatsuya Nakadai (id:1036950)

春川真澄 Masumi Harukawa (id:1042820)

八千草薰 Kaoru Yachigusa (id:1016891)

石野真子 Mako Ishino (id:1006028)

殿山泰司 Taiji Tonoyama (id:1029580)

加藤嘉 Yoshi Kat? (id:1107157)

石仓三郎 Sabur? Ishikura (id:1175171)

泉谷茂 Shigeru Izumiya (id:1048603)

柳叶敏郎 Toshir? Yanagiba (id:1017083)

长门裕之 Hiroyuki Nagato (id:1133912)

三木纪平 Norihei Miki (id:1003654)

田村高广 Takahiro Tamura (id:1051114)

Ry?ji Takasaki Ry?ji Takasaki (id:1157744)

平林尚三 Sh?z? Hirabayashi (id:1169856)

黑田亚瑟 Arthur Kuroda (id:1172182)

川上夏代 Natsuyo Kawakami (id:1173970)

加藤登纪子 Tokiko Kat? (id:1288182)

山城新伍 Shingo Yamashiro (id:1043104)

樋浦勉 Ben Hiura (id:1006391)

中村美代子 Miyoko Nakamura (id:1007830)

原知佐子 Chisako Hara (id:1017251)

岸部四郎 Shir? Kishibe (id:1020215)

浦边粂子 Kumeko Urabe (id:1029657)

野口文惠 Fumie Noguchi (id:1031029)

菅井琴 Kin Sugai (id:1034236)

尾美利德 Toshinori Omi (id:1039098)

高桥长英 Ch?ei Takahashi (id:1039227)

谷津勋 Isao Yatsu (id:1043175)

进藤淳一 Junichi Shindo (id:1443612)

奥山和由 Kazuyoshi Okuyama (id:1038869)

林哲司 Tetsuji Hayashi (id:1286270)

姫田真佐久 Shinsaku Himeda (id:1218165)

西冈善信 Yoshinobu Nishioka (id:1013153)

◎简 介

1923年,日本秋田县大馆市天降大雪,近藤家纯种秋田犬产仔,赠与县土木科长间濑。后者将其中一犬转赠东京帝国大学教授上野秀次郎(仲代达矢 Tatsuya Nakadai 饰)驯养。上野的独生女千鹤子对此欢欣鼓舞,而上野夫妇却面露难色。后来,千鹤子(石野真子 Mako Ishino饰)谈恋爱,竟怀了男友的孩子。男友专程登门造访。上野与之对谈,后者诚惶诚恐,坦言要对其女儿负责,事不宜迟,即日便举行婚礼,上野闻听此言,转怒为喜。千鹤子出嫁后,上野旋即把全部的心血与爱都投注在幼犬身上,并取名为阿八。每日上下班,阿八必在涩谷车站等候,一年四季,风雨无阻,令路人叹为观止,成为地方一道风景,主仆之情感动天地……

本片根据真实事件改编,为1987年日本票房冠军,票房成绩高达54亿日元。

  1. ##### MediaInfo ######

  2. General

  3. Unique ID : 232033666590079099605103674248759905937 (0xAE900F0449BA9F329B7EED2D9FE48E91)

  4. Complete name : Hachi-ko.1987.BluRay.1080p.x265.10bit.3Audio-MiniHD.mkv

  5. Format : Matroska

  6. Format version : Version 4

  7. File size : 5.17 GiB

  8. Duration : 1 h 47 min

  9. Overall bit rate : 6 867 kb/s

  10. Encoded date : UTC 2017-06-06 14:27:08

  11. Writing application : mkvmerge v11.0.0 ('Alive') 64bit

  12. Writing library : libebml v1.3.4 + libmatroska v1.4.5

  13. Video

  14. ID : 1

  15. Format : HEVC

  16. Format/Info : High Efficiency Video Coding

  17. Codec ID : V_MPEGH/ISO/HEVC

  18. Duration : 1 h 47 min

  19. Bit rate : 6 026 kb/s

  20. Width : 1 920 pixels

  21. Height : 1 038 pixels

  22. Display aspect ratio : 1.85:1

  23. Frame rate mode : Constant

  24. Frame rate : 23.976 (24000/1001/53354) FPS

  25. Bits/(Pixel*Frame) : 0.126

  26. Stream size : 4.54 GiB (88%)

  27. Default : Yes

  28. Forced : No

  29. Audio #1

  30. ID : 2

  31. Format : AC-3

  32. Format/Info : Audio Coding 3

  33. Commercial name : Dolby Digital

  34. Codec ID : A_AC3

  35. Duration : 1 h 47 min

  36. Bit rate mode : Constant

  37. Bit rate : 320 kb/s

  38. Channel(s) : 2 channels

  39. Channel layout : L R

  40. Sampling rate : 48.0 kHz

  41. Frame rate : 31.250 FPS (1536 SPF)

  42. Compression mode : Lossy

  43. Stream size : 247 MiB (5%)

  44. Language : Japanese

  45. Service kind : Complete Main

  46. Default : Yes

  47. Forced : No

  48. Audio #2

  49. ID : 3

  50. Format : AC-3

  51. Format/Info : Audio Coding 3

  52. Commercial name : Dolby Digital

  53. Codec ID : A_AC3

  54. Duration : 1 h 47 min

  55. Bit rate mode : Constant

  56. Bit rate : 192 kb/s

  57. Channel(s) : 2 channels

  58. Channel layout : L R

  59. Sampling rate : 48.0 kHz

  60. Frame rate : 31.250 FPS (1536 SPF)

  61. Compression mode : Lossy

  62. Stream size : 148 MiB (3%)

  63. Language : Chinese

  64. Service kind : Complete Main

  65. Default : No

  66. Forced : No

  67. Audio #3

  68. ID : 4

  69. Format : AC-3

  70. Format/Info : Audio Coding 3

  71. Commercial name : Dolby Digital

  72. Codec ID : A_AC3

  73. Duration : 1 h 47 min

  74. Bit rate mode : Constant

  75. Bit rate : 192 kb/s

  76. Channel(s) : 2 channels

  77. Channel layout : L R

  78. Sampling rate : 48.0 kHz

  79. Frame rate : 31.250 FPS (1536 SPF)

  80. Compression mode : Lossy

  81. Stream size : 148 MiB (3%)

  82. Language : Chinese

  83. Service kind : Complete Main

  84. Default : No

  85. Forced : No

  86. Text #1

  87. ID : 5

  88. Format : PGS

  89. Muxing mode : zlib

  90. Codec ID : S_HDMV/PGS

  91. Codec ID/Info : Picture based subtitle format used on BDs/HD-DVDs

  92. Language : Japanese

  93. Default : Yes

  94. Forced : No

  95. Text #2

  96. ID : 6

  97. Format : PGS

  98. Muxing mode : zlib

  99. Codec ID : S_HDMV/PGS

  100. Codec ID/Info : Picture based subtitle format used on BDs/HD-DVDs

  101. Language : Chinese

  102. Default : No

  103. Forced : No

  104. Text #3

  105. ID : 7

  106. Format : PGS

  107. Muxing mode : zlib

  108. Codec ID : S_HDMV/PGS

  109. Codec ID/Info : Picture based subtitle format used on BDs/HD-DVDs

  110. Language : Chinese

  111. Default : No

  112. Forced : No

  113. Menu

  114. 00:00:00.000 : en:Chapter 01

  115. 00:08:09.697 : en:Chapter 02

  116. 00:13:43.823 : en:Chapter 03

  117. 00:20:53.335 : en:Chapter 04

  118. 00:26:04.186 : en:Chapter 05

  119. 00:38:05.950 : en:Chapter 06

  120. 00:45:13.836 : en:Chapter 07

  121. 00:53:58.568 : en:Chapter 08

  122. 01:04:05.258 : en:Chapter 09

  123. 01:12:36.309 : en:Chapter 10

  124. 01:25:54.941 : en:Chapter 11

  125. 01:36:31.201 : en:Chapter 12

  126. 01:47:45.459 : en:Chapter 13


复制代码


TAGS 剧情

磁力链:
  • magnet:?xt=urn:btih:3884C983F3BA75C74AC9DBC0421A5D1FF5CA25F7
上传的附件:
BT9527电影天堂 1、BT9527电影天堂提供的BT文件均来源于互联网抓取,只供网友学习交流、技术提升使用。
2、我们遵守BitTorrent点对点协议原则,任何版权问题请联系原资源发布商,我们不处理任何版权纠纷,谢谢!如有争议请联系邮箱:BT9527#hotmail.com(#换成@)
3、如果您发现某页面或地址有错误,请联系站长邮箱BT9527#hotmail.com(#换成@),我们会尽快处理。您的热心是对BT9527电影天堂最大的支持。
4、本站建议去正规影院观看电影以支持电影行业发展。
最新回复 (0)

你可以在 登录 or 注册 后,对此帖发表评论!

返回
发新帖