当幸福来敲门[国英多音轨/简繁英字幕].The.Pursuit.of.Happyness.2006.Bluray.1080p.x265.10bit.2Audio-MiniHD 4.83GB

版主小s 26天前 90

◎译 名 当幸福来敲门 / 寻找快乐的故事(港) / 追求快乐 / 幸福追击 / The Pursuit of Happiness

◎片 名 The Pursuit of Happyness

◎年 代 2006

◎产 地 美国

◎类 别 剧情 / 家庭 / 传记

◎语 言 英语 / 粤语

◎上映日期 2008-01-17(中国大陆) / 2020-07-20(中国大陆重映) / 2006-12-15(美国)

◎IMDb链接 https://www.imdb.com/title/tt0454921/

◎豆瓣评分 9.2/10 (1391601人评价)

◎豆瓣链接 https://movie.douban.com/subject/1849031/

◎片 长 117分钟

◎导 演 加布里埃莱·穆奇诺 Gabriele Muccino (id:1045093)

◎编 剧 斯蒂夫·康拉德 Steve Conrad (id:1322146)

◎演 员 威尔·史密斯 Will Smith (id:1027138)

贾登·史密斯 Jaden Smith (id:1010532)

坦迪·牛顿 Thandiwe Newton (id:1040513)

布莱恩·豪威 Brian Howe (id:1317100)

詹姆斯·凯伦 James Karen (id:1112637)

丹·卡斯泰兰尼塔 Dan Castellaneta (id:1041148)

柯特·富勒 Kurt Fuller (id:1049882)

塔卡尤·费舍尔 Takayo Fischer (id:1087216)

凯文·韦斯特 Kevin West (id:1165462)

乔治·张 George Cheung (id:1368948)

戴维·迈克尔·西尔弗曼 David Michael Silverman (id:1368949)

多米尼克·博夫 Domenic Bove (id:1368950)

杰弗·卡伦 Geoff Callan (id:1042019)

乔伊芙·拉文 Joyful Raven (id:1368951)

斯科特·克拉斯 Scott Klace (id:1110175)

希瑟·坎特 Heather Kantor (id:1460419)

约翰·帕特里克·舒拉克 John Patrick Shulak (id:1170448)

大卫·皮尔 David Pearl (id:1432775)

伊斯特·斯高特 Esther Scott (id:1363169)

罗明 Ming Lo (id:1325918)

亚当·王 Adam Wang (id:1273669)

拉希达·克伦迪宁 Rashida Clendening (id:1076469)

大卫·芬恩 David Fine (id:1054784)

扎克·布拉夫 Zach Braff (id:1000047)

莫莉·塞拉斯基 Molly Celaschi (id:1010894)

加瑞特·法贝斯 Garrett Forbes (id:1010316)

克里斯·加德纳 Chris Gardner (id:1005404)

马克·克里斯托弗·劳伦斯 Mark Christopher Lawrence (id:1113296)

乔治·马奎尔 George Maguire (id:1117551)

扎卡里·卡伯森 Zachary Culbertson (id:1253019)

戴维·阿伦·霍奇斯 David Alan Hodges (id:1240035)

亚历山大·库科尔 Alexander Cukor (id:1238634)

多恩·安德鲁·西蒙斯 Donn Andrew Simmons (id:1231856)

阿米尔·塔莱 Amir Talai (id:1225406)

塞雷娜·锡德 Serene Sidher (id:1212977)

凯文·克鲁克 Kevin Crook (id:1191816)

詹姆斯·科纳 James Cotner (id:1184373)

亚当·德尔·里奥 Adam Del Rio (id:1180419)

里克·坎普 Rick Camp (id:1179949)

威廉·保罗·史密斯 William Paul Smith (id:1170664)

塞西尔·威廉斯 Rev. Cecil Williams (id:1167040)

维克托·莱德·维斯勒 Victor Raider-Wexler (id:1140550)

艾丽莎·安德瑞格 Alissa Anderegg (id:1001023)

克里斯·加德纳 Chris Gardner (id:1005404)

威尔·史密斯 Will Smith (id:1027138)

托德·布莱克 Todd Black (id:1005356)

路易斯·德·埃斯波西托 Louis D'Esposito (id:1345032)

杰森·布鲁门塔尔 Jason Blumenthal (id:1448830)

詹姆斯·拉西特 James Lassiter (id:1289478)

史蒂夫·蒂彻 Steve Tisch (id:1007243)

安德烈埃·格拉 Andrea Guerra (id:1285601)

芬顿·帕帕迈可 Phedon Papamichael (id:1276379)

休斯·温伯恩 Hughes Winborne (id:1276411)

丹尼斯·查米恩 Denise Chamian (id:1280408)

戴维·F·克拉森 David F. Klassen (id:1288673)

J·迈克尔·里瓦 J. Michael Riva (id:1009846)

劳里·加芬 Lauri Gaffin (id:1284378)

雪伦·戴维斯 Sharen Davis (id:1033006)

皮尔斯·奥斯汀 Pierce Austin (id:1060398)

乔安·斯塔福德-钱尼 JoAnn Stafford-Chaney (id:1298231)

梅兰妮·休斯 Melanie Hughes (id:1287115)

朱迪·默多克 Judy Murdock (id:1292738)

艾米拉·L·迪瓦罗 Amy L. Disarro (id:1282473)

比尔·博普 Bill Purple (id:1301850)

贾斯敏·阿罕布拉 Jasmine Alhambra (id:1224101)

拉斯·P·温特 Lars P. Winther (id:1051237)

菲·陈 Phi Tran (id:1309487)

约瑟夫·贝尔 Joseph Bell (id:1309206)

埃里克·布鲁威勒 Erik Bruhwiler (id:1308923)

杰罗姆·莫林 Jerome Morin (id:1307280)

汤米·陈 Tommy Tran (id:1299471)

塔米·萨顿 Tammy Sutton (id:1298686)

班诺特·吉拉尔 Benoit Girard (id:1308287)

安德鲁·罗伯茨 Andrew Roberts (id:1223036)

卡尔·弗雷茨 Carl Frytz (id:1239348)

克里斯·戴尔·康特 Chris Del Conte (id:1282169)

D·瓦尔特·卡梅伦 D. Walt Cameron (id:1013305)

◎简 介

克里斯?加纳(威尔·史密斯 Will Smith 饰)用尽全部积蓄买下了高科技治疗仪,到处向医院推销,可是价格高昂,接受的人不多。就算他多努力都无法提供一个良好的生活环境给妻儿,妻子(桑迪·牛顿 Thandie Newton 饰)最终选择离开家。从此他带着儿子克里斯托夫(贾登·史密斯 Jaden Smith 饰)相依为命。克里斯好不容易争取回来一个股票投资公司实习的机会,就算没有报酬,成功机会只有百分之五,他仍努力奋斗,儿子是他的力量。他看尽白眼,与儿子躲在地铁站里的公共厕所里,住在教堂的收容所里…… 他坚信,幸福明天就会来临。

◎获奖情况 (共5项)

第79届奥斯卡金像奖 (2007)

最佳男主角(提名)

└──威尔·史密斯 (id:1027138)

第64届金球奖 (2007)

电影类 剧情片最佳男主角(提名)

└──威尔·史密斯 (id:1027138)

电影类 最佳原创歌曲(提名)

└──席尔 (id:1004921)

第16届MTV电影奖 (2007)

MTV电影奖 最佳表演(提名)

└──威尔·史密斯 (id:1027138)

MTV电影奖 突破表演奖

└──贾登·史密斯 (id:1010532)

  1. ##### MediaInfo ######

  2. General

  3. Unique ID : 250033183835827449138686562358092690421 (0xBC1AA3BBC6BF86F6BBE1DC6503CCF3F5)

  4. Complete name : The.Pursuit.of.Happyness.2006.Bluray.1080p.x265.10bit.2Audio-MiniHD.mkv

  5. Format : Matroska

  6. Format version : Version 4

  7. File size : 4.83 GiB

  8. Duration : 1 h 57 min

  9. Overall bit rate : 5 884 kb/s

  10. Encoded date : UTC 2017-12-07 09:39:04

  11. Writing application : mkvmerge v18.0.0 ('Apricity') 64-bit

  12. Writing library : libebml v1.3.5 + libmatroska v1.4.8

  13. Video

  14. ID : 1

  15. Format : HEVC

  16. Format/Info : High Efficiency Video Coding

  17. Format profile : Main 10@L4@High

  18. Codec ID : V_MPEGH/ISO/HEVC

  19. Duration : 1 h 57 min

  20. Bit rate : 4 679 kb/s

  21. Width : 1 920 pixels

  22. Height : 800 pixels

  23. Display aspect ratio : 2.40:1

  24. Frame rate mode : Constant

  25. Frame rate : 23.976 (24000/1001/53354) FPS

  26. Color space : YUV

  27. Chroma subsampling : 4:2:0

  28. Bit depth : 10 bits

  29. Bits/(Pixel*Frame) : 0.127

  30. Stream size : 3.84 GiB (80%)

  31. Title : The Pursuit of Happyness.HEVC

  32. Writing library : x265 2.6+11-94dc146c5f67:[Windows][MSVC 1911][64 bit] 10bit

  33. Encoding settings : cpuid=533541173503 / frame-threads=4 / numa-pools=16 / wpp / no-pmode / no-pme / no-psnr / no-ssim / log-level=4 / csvfn=D:\Video\m2ts\The / Pursuit / of / Happyness\265.log / csv-log-level=0 / input-csp=1 / input-res=1920x800 / interlace=0 / total-frames=0 / level-idc=0 / high-tier=1 / uhd-bd=0 / ref=5 / no-allow-non-conformance / no-repeat-headers / annexb / no-aud / no-hrd / info / hash=0 / no-temporal-layers / no-open-gop / min-keyint=1 / keyint=360 / gop-lookahead=0 / bframes=11 / b-adapt=2 / b-pyramid / bframe-bias=0 / rc-lookahead=60 / lookahead-slices=4 / NTMzNTQ=uuDQuD2mJt9fsCf / scenecut=40 / no-intra-refresh / ctu=32 / min-cu-size=8 / no-rect / no-amp / max-tu-size=16 / tu-inter-depth=2 / tu-intra-depth=2 / limit-tu=4 / rdoq-level=2 / dynamic-rd=0.00 / ssim-rd / signhide / no-tskip / nr-intra=0 / nr-inter=0 / no-constrained-intra / no-strong-intra-smoothing / max-merge=3 / limit-refs=2 / limit-modes / me=3 / subme=5 / merange=25 / temporal-mvp / weightp / weightb / no-analyze-src-pics / deblock=-1:-1 / no-sao / no-sao-non-deblock / rd=4 / no-early-skip / rskip / no-fast-intra / no-tskip-fast / no-cu-lossless / b-intra / no-splitrd-skip / rdpenalty=1 / psy-rd=1.50 / psy-rdoq=1.80 / no-rd-refine / analysis-reuse-mode=0 / no-lossless / cbqpoffs=-2 / crqpoffs=-2 / rc=crf / crf=18.8 / qcomp=0.65 / qpstep=4 / stats-write=0 / stats-read=0 / vbv-maxrate=18000 / vbv-bufsize=20000 / vbv-init=0.9 / crf-max=0.0 / crf-min=0.0 / ipratio=1.40 / pbratio=1.30 / aq-mode=2 / aq-strength=0.90 / cutree / zone-count=0 / no-strict-cbr / qg-size=16 / no-rc-grain / qpmax=69 / qpmin=0 / no-const-vbv / sar=0 / overscan=0 / videoformat=5 / range=0 / colorprim=1 / transfer=2 / colormatrix=2 / chromaloc=0 / display-window=0 / max-cll=0,0 / min-luma=0 / max-luma=1023 / log2-max-poc-lsb=8 / vui-timing-info / vui-hrd-info / slices=1 / no-opt-qp-pps / no-opt-ref-list-length-pps / no-multi-pass-opt-rps / scenecut-bias=0.05 / no-opt-cu-delta-qp / no-aq-motion / no-hdr / no-hdr-opt / no-dhdr10-opt / analysis-reuse-level=5 / scale-factor=0 / refine-intra=0 / refine-inter=0 / refine-mv=0 / no-limit-sao / ctu-info=0 / no-lowpass-dct / refine-mv-type=0 / copy-pic=1

  34. Default : Yes

  35. Forced : No

  36. Color range : Limited

  37. Color primaries : BT.709

  38. Audio #1

  39. ID : 2

  40. Format : AC-3

  41. Format/Info : Audio Coding 3

  42. Commercial name : Dolby Digital

  43. Codec ID : A_AC3

  44. Duration : 1 h 57 min

  45. Bit rate mode : Constant

  46. Bit rate : 640 kb/s

  47. Channel(s) : 6 channels

  48. Channel layout : L R C LFE Ls Rs

  49. Sampling rate : 48.0 kHz

  50. Frame rate : 31.250 FPS (1536 SPF)

  51. Compression mode : Lossy

  52. Stream size : 538 MiB (11%)

  53. Title : ENGLISH.AC3

  54. Language : English

  55. Service kind : Complete Main

  56. Default : Yes

  57. Forced : No

  58. Audio #2

  59. ID : 3

  60. Format : AC-3

  61. Format/Info : Audio Coding 3

  62. Commercial name : Dolby Digital

  63. Codec ID : A_AC3

  64. Duration : 1 h 57 min

  65. Bit rate mode : Constant

  66. Bit rate : 448 kb/s

  67. Channel(s) : 6 channels

  68. Channel layout : L R C LFE Ls Rs

  69. Sampling rate : 48.0 kHz

  70. Frame rate : 31.250 FPS (1536 SPF)

  71. Compression mode : Lossy

  72. Stream size : 376 MiB (8%)

  73. Title : CHINESE.AC3

  74. Language : Chinese

  75. Service kind : Complete Main

  76. Default : No

  77. Forced : No

  78. Text #1

  79. ID : 4

  80. Format : PGS

  81. Codec ID : S_HDMV/PGS

  82. Codec ID/Info : Picture based subtitle format used on BDs/HD-DVDs

  83. Duration : 1 h 52 min

  84. Bit rate : 40.1 kb/s

  85. Count of elements : 2686

  86. Stream size : 32.3 MiB (1%)

  87. Title : 繁体中文.sup

  88. Language : Chinese

  89. Default : No

  90. Forced : No

  91. Text #2

  92. ID : 5

  93. Format : PGS

  94. Codec ID : S_HDMV/PGS

  95. Codec ID/Info : Picture based subtitle format used on BDs/HD-DVDs

  96. Duration : 1 h 52 min

  97. Bit rate : 24.2 kb/s

  98. Count of elements : 2686

  99. Stream size : 19.5 MiB (0%)

  100. Title : 简体中文.sup

  101. Language : Chinese

  102. Default : Yes

  103. Forced : No

  104. Text #3

  105. ID : 6

  106. Format : PGS

  107. Codec ID : S_HDMV/PGS

  108. Codec ID/Info : Picture based subtitle format used on BDs/HD-DVDs

  109. Duration : 1 h 51 min

  110. Bit rate : 56.1 kb/s

  111. Count of elements : 2706

  112. Stream size : 44.8 MiB (1%)

  113. Title : ENGLISH.sup

  114. Language : English

  115. Default : No

  116. Forced : No

  117. Menu

  118. 00:00:00.000 : en:Chapter 01

  119. 00:05:09.017 : en:Chapter 02

  120. 00:12:36.255 : en:Chapter 03

  121. 00:22:25.553 : en:Chapter 04

  122. 00:28:09.897 : en:Chapter 05

  123. 00:33:33.929 : en:Chapter 06

  124. 00:41:18.434 : en:Chapter 07

  125. 00:48:15.518 : en:Chapter 08

  126. 00:55:49.513 : en:Chapter 09

  127. 01:02:17.233 : en:Chapter 10

  128. 01:09:20.365 : en:Chapter 11

  129. 01:17:49.456 : en:Chapter 12

  130. 01:24:34.236 : en:Chapter 13

  131. 01:33:57.298 : en:Chapter 14

  132. 01:41:19.240 : en:Chapter 15

  133. 01:48:30.129 : en:Chapter 16


复制代码


TAGS 剧情 家庭 传记 /

磁力链:
  • magnet:?xt=urn:btih:BDD95152C6A1BD17C51CD266F381FCB887A9B599
上传的附件:
BT9527电影天堂 1、BT9527电影天堂提供的BT文件均来源于互联网抓取,只供网友学习交流、技术提升使用。
2、我们遵守BitTorrent点对点协议原则,任何版权问题请联系原资源发布商,我们不处理任何版权纠纷,谢谢!如有争议请联系邮箱:BT9527#hotmail.com(#换成@)
3、如果您发现某页面或地址有错误,请联系站长邮箱BT9527#hotmail.com(#换成@),我们会尽快处理。您的热心是对BT9527电影天堂最大的支持。
4、本站建议去正规影院观看电影以支持电影行业发展。
最新回复 (0)

你可以在 登录 or 注册 后,对此帖发表评论!

返回
发新帖