异形:契约[国英多音轨/中英字幕].Alien.Covenant.2017.BluRay.1080p.x265.10bit.2Audio-MiniHD 6.41GB

版主小s 26天前 140

◎译 名 异形:契约 / 异形:圣约(港 / 台) / 神奇异形在哪里(豆友译名) / 已开:大勺(豆友译名) / 异形:失乐园 / 普罗米修斯2 / Prometheus 2 / Alien: Paradise Lost

◎片 名 Alien: Covenant

◎年 代 2017

◎产 地 美国

◎类 别 科幻 / 恐怖

◎语 言 英语

◎上映日期 2017-06-16(中国大陆) / 2017-05-10(法国) / 2017-05-19(美国)

◎IMDb链接 https://www.imdb.com/title/tt2316204/

◎豆瓣评分 7.4/10 (237825人评价)

◎豆瓣链接 https://movie.douban.com/subject/11803087/

◎片 长 122分钟

◎导 演 雷德利·斯科特 Ridley Scott (id:1054416)

◎编 剧 迈克尔·格林 Michael Green (id:1339873)

约翰·洛根 John Logan (id:1118279)

杰克·帕格恩 Jack Paglen (id:1339385)

◎演 员 迈克尔·法斯宾德 Michael Fassbender (id:1000010)

凯瑟琳·沃特斯顿 Katherine Waterston (id:1316589)

比利·克鲁德普 Billy Crudup (id:1009265)

丹尼·麦克布莱德 Danny McBride (id:1013797)

德米安·比齐尔 Demián Bichir (id:1022762)

卡门·艾乔戈 Carmen Ejogo (id:1014022)

朱西·斯莫利特 Jussie Smollett (id:1153078)

考莉·埃尔南德斯 Callie Hernandez (id:1339675)

艾米·西米茨 Amy Seimetz (id:1307449)

纳撒尼尔·迪安 Nathaniel Dean (id:1303273)

亚历山大·英格兰 Alexander England (id:1374204)

本杰明·里格比 Benjamin Rigby (id:1355648)

乌利·拉图基孚 Uli Latukefu (id:1374205)

泰丝·哈乌布里奇 Tess Haubrich (id:1360418)

罗蕾莱·金 Lorelei King (id:1374206)

哈维尔·博泰特 Javier Botet (id:1247131)

詹姆斯·弗兰科 James Franco (id:1019001)

盖·皮尔斯 Guy Pearce (id:1035672)

劳米·拉佩斯 Noomi Rapace (id:1013796)

戈兰·D·克鲁特 Goran D. Kleut (id:1336258)

雷德利·斯科特 Ridley Scott (id:1054416)

迈克尔·舍费尔 Michael Schaefer (id:1355118)

杰德·库泽尔 Jed Kurzel (id:1376075)

达瑞兹·沃斯基 Dariusz Wolski (id:1276296)

卢克·斯科特 Luke Scott (id:1359686)

劳伦·麦卡勒姆 Lauren McCallum (id:1416840)

拉斐尔·皮门特尔 Raphael A. Pimentel (id:1419122)

伊利亚·阿法纳西耶夫 Illia Afanasiev (id:1405394)

◎简 介

故事发生在一艘名为“契约”的殖民太空船之上,飞船上搭载了两千名进入沉睡的殖民者,他们的目的地是遥远的欧米伽六号行星,希望能够在那里建立新的家园。一场意外的发生令契约号的能量收集帆遭到了破坏,船长布兰森(詹姆斯·弗兰科 James Franco 饰)亦不幸身亡。作为代理船长的欧朗(比利·克鲁德普 Billy Crudup 饰)带领着惊恐而又悲伤的船员们降落到了一颗未知的神秘星球上。

在这里,他们遇见了仿生人大卫(迈克尔·法斯宾德 Michael Fassbender 饰),大卫热情的接纳了人类的到来,并讲述了他和已故的肖博士(劳米·拉佩斯 Noomi Rapace 饰)在这里生活的经历。就在大卫渐渐赢得了船员们的信任的同时,大家已经一步一步的走入了前者为他们精心打造的地狱之中。

◎获奖情况 (共6项)

第22届金卫星奖 (2018)

电影部门 最佳视觉效果(提名)

第4届豆瓣电影年度榜单 (2017)

评分最高的科幻/动作片(提名)

评分最高的恐怖片(提名)

年度电影原声(提名)

6月最受关注电影(提名)

第3届豆瓣电影年度榜单 (2016)

最值得期待的外语电影(提名)

  1. ##### MediaInfo ######

  2. General

  3. Unique ID : 220536526645390876069226770184212303722 (0xA5E9CA40B35388CE8248F7412B13CF6A)

  4. Complete name : Alien.Covenant.2017.BluRay.1080p.x265.10bit.2Audio-MiniHD.mkv

  5. Format : Matroska

  6. Format version : Version 4

  7. File size : 6.41 GiB

  8. Duration : 2 h 2 min

  9. Overall bit rate : 7 523 kb/s

  10. Encoded date : UTC 2017-08-04 07:05:17

  11. Writing application : mkvmerge v11.0.0 ('Alive') 64bit

  12. Writing library : libebml v1.3.4 + libmatroska v1.4.5

  13. Video

  14. ID : 1

  15. Format : HEVC

  16. Format/Info : High Efficiency Video Coding

  17. Codec ID : V_MPEGH/ISO/HEVC

  18. Duration : 2 h 2 min

  19. Bit rate : 6 541 kb/s

  20. Width : 1 920 pixels

  21. Height : 800 pixels

  22. Display aspect ratio : 2.40:1

  23. Frame rate mode : Constant

  24. Frame rate : 23.976 (24000/1001/53354) FPS

  25. Bits/(Pixel*Frame) : 0.178

  26. Stream size : 5.58 GiB (87%)

  27. Default : Yes

  28. Forced : No

  29. Audio #1

  30. ID : 2

  31. Format : AC-3

  32. Format/Info : Audio Coding 3

  33. Commercial name : Dolby Digital

  34. Codec ID : A_AC3

  35. Duration : 2 h 2 min

  36. Bit rate mode : Constant

  37. Bit rate : 640 kb/s

  38. Channel(s) : 6 channels

  39. Channel layout : L R C LFE Ls Rs

  40. Sampling rate : 48.0 kHz

  41. Frame rate : 31.250 FPS (1536 SPF)

  42. Compression mode : Lossy

  43. Stream size : 559 MiB (9%)

  44. Language : English

  45. Service kind : Complete Main

  46. Default : Yes

  47. Forced : No

  48. Audio #2

  49. ID : 3

  50. Format : AC-3

  51. Format/Info : Audio Coding 3

  52. Commercial name : Dolby Digital

  53. Codec ID : A_AC3

  54. Duration : 2 h 2 min

  55. Bit rate mode : Constant

  56. Bit rate : 192 kb/s

  57. Channel(s) : 2 channels

  58. Channel layout : L R

  59. Sampling rate : 48.0 kHz

  60. Frame rate : 31.250 FPS (1536 SPF)

  61. Compression mode : Lossy

  62. Stream size : 168 MiB (3%)

  63. Language : Chinese

  64. Service kind : Complete Main

  65. Default : No

  66. Forced : No

  67. Text #1

  68. ID : 4

  69. Format : PGS

  70. Muxing mode : zlib

  71. Codec ID : S_HDMV/PGS

  72. Codec ID/Info : Picture based subtitle format used on BDs/HD-DVDs

  73. Language : English

  74. Default : Yes

  75. Forced : No

  76. Text #2

  77. ID : 5

  78. Format : PGS

  79. Muxing mode : zlib

  80. Codec ID : S_HDMV/PGS

  81. Codec ID/Info : Picture based subtitle format used on BDs/HD-DVDs

  82. Language : Chinese

  83. Default : No

  84. Forced : No

  85. Text #3

  86. ID : 6

  87. Format : PGS

  88. Muxing mode : zlib

  89. Codec ID : S_HDMV/PGS

  90. Codec ID/Info : Picture based subtitle format used on BDs/HD-DVDs

  91. Language : Chinese

  92. Default : No

  93. Forced : No

  94. Text #4

  95. ID : 7

  96. Format : PGS

  97. Muxing mode : zlib

  98. Codec ID : S_HDMV/PGS

  99. Codec ID/Info : Picture based subtitle format used on BDs/HD-DVDs

  100. Language : Chinese

  101. Default : No

  102. Forced : No

  103. Text #5

  104. ID : 8

  105. Format : PGS

  106. Muxing mode : zlib

  107. Codec ID : S_HDMV/PGS

  108. Codec ID/Info : Picture based subtitle format used on BDs/HD-DVDs

  109. Language : Chinese

  110. Default : No

  111. Forced : No

  112. Text #6

  113. ID : 9

  114. Format : PGS

  115. Muxing mode : zlib

  116. Codec ID : S_HDMV/PGS

  117. Codec ID/Info : Picture based subtitle format used on BDs/HD-DVDs

  118. Language : Chinese

  119. Default : No

  120. Forced : No

  121. Text #7

  122. ID : 10

  123. Format : PGS

  124. Muxing mode : zlib

  125. Codec ID : S_HDMV/PGS

  126. Codec ID/Info : Picture based subtitle format used on BDs/HD-DVDs

  127. Language : Chinese

  128. Default : No

  129. Forced : No

  130. Text #8

  131. ID : 11

  132. Format : PGS

  133. Muxing mode : zlib

  134. Codec ID : S_HDMV/PGS

  135. Codec ID/Info : Picture based subtitle format used on BDs/HD-DVDs

  136. Language : Chinese

  137. Default : No

  138. Forced : No

  139. Text #9

  140. ID : 12

  141. Format : PGS

  142. Muxing mode : zlib

  143. Codec ID : S_HDMV/PGS

  144. Codec ID/Info : Picture based subtitle format used on BDs/HD-DVDs

  145. Language : Chinese

  146. Default : No

  147. Forced : No

  148. Menu

  149. 00:00:00.000 : en:Chapter 01

  150. 00:04:47.662 : en:Chapter 02

  151. 00:13:07.495 : en:Chapter 03

  152. 00:18:11.924 : en:Chapter 04

  153. 00:22:46.448 : en:Chapter 05

  154. 00:27:51.169 : en:Chapter 06

  155. 00:33:12.907 : en:Chapter 07

  156. 00:37:18.736 : en:Chapter 08

  157. 00:42:19.912 : en:Chapter 09

  158. 00:47:43.694 : en:Chapter 10

  159. 00:52:04.371 : en:Chapter 11

  160. 00:55:56.269 : en:Chapter 12

  161. 01:00:17.447 : en:Chapter 13

  162. 01:06:20.643 : en:Chapter 14

  163. 01:11:25.030 : en:Chapter 15

  164. 01:16:35.882 : en:Chapter 16

  165. 01:21:10.031 : en:Chapter 17

  166. 01:28:18.793 : en:Chapter 18

  167. 01:31:21.559 : en:Chapter 19

  168. 01:34:52.436 : en:Chapter 20

  169. 01:39:23.666 : en:Chapter 21

  170. 01:43:35.876 : en:Chapter 22

  171. 01:50:49.309 : en:Chapter 23

  172. 01:55:27.754 : en:Chapter 24


复制代码


TAGS 恐怖 科幻 /

磁力链:
  • magnet:?xt=urn:btih:5C92437F14A37833AEB0D64E26806B361F884C33
上传的附件:
BT9527电影天堂 1、BT9527电影天堂提供的BT文件均来源于互联网抓取,只供网友学习交流、技术提升使用。
2、我们遵守BitTorrent点对点协议原则,任何版权问题请联系原资源发布商,我们不处理任何版权纠纷,谢谢!如有争议请联系邮箱:BT9527#hotmail.com(#换成@)
3、如果您发现某页面或地址有错误,请联系站长邮箱BT9527#hotmail.com(#换成@),我们会尽快处理。您的热心是对BT9527电影天堂最大的支持。
4、本站建议去正规影院观看电影以支持电影行业发展。
最新回复 (0)

你可以在 登录 or 注册 后,对此帖发表评论!

返回
发新帖