异形4[中英字幕].Alien.Resurrection.1997.Special.Edition.BluRay.1080p.x265.10bit-MiniHD 7.05GB

版主小s 4月前 261

◎译 名 异形4 / 异形4之逆种(港) / 异形4:浴火重生(台) / 异形4:复活 / 异形复活 / Alien 4

◎片 名 Alien: Resurrection

◎年 代 1997

◎产 地 美国

◎类 别 动作 / 科幻 / 恐怖

◎语 言 英语

◎上映日期 1997-11-06(巴黎首映) / 1997-11-26(美国)

◎IMDb链接 https://www.imdb.com/title/tt0118583/

◎豆瓣评分 7.7/10 (87297人评价)

◎豆瓣链接 https://movie.douban.com/subject/1299153/

◎片 长 109分钟

◎导 演 让-皮埃尔·热内 Jean-Pierre Jeunet (id:1054518)

◎编 剧 乔斯·韦登 Joss Whedon (id:1010552)

丹·欧班农 Dan O'Bannon (id:1027500)

罗纳德·舒塞特 Ronald Shusett (id:1297534)

◎演 员 西格妮·韦弗 Sigourney Weaver (id:1053569)

薇诺娜·瑞德 Winona Ryder (id:1012519)

多米尼克·皮侬 Dominique Pinon (id:1128740)

朗·普尔曼 Ron Perlman (id:1002688)

加里·杜尔丹 Gary Dourdan (id:1036469)

迈克尔·维克特 Michael Wincott (id:1055545)

基姆·弗劳尔斯 Kim Flowers (id:1356181)

丹·哈达亚 Dan Hedaya (id:1025245)

J·E·弗里曼 J.E. Freeman (id:1087142)

布拉德·道里夫 Brad Dourif (id:1031866)

雷蒙德·克鲁斯 Raymond Cruz (id:1076277)

利兰·奥瑟 Leland Orser (id:1025230)

汤姆·伍德鲁夫 Tom Woodruff Jr. (id:1301250)

Eddie Yansick Eddie Yansick (id:1301424)

Brad Martin Brad Martin (id:1014368)

大卫·圣.詹姆斯 David St. James (id:1154210)

尼托·拉里奥萨 Nito Larioza (id:1209344)

丹尼尔·雷蒙特 Daniel Raymont (id:1141413)

大卫·普瑞尔 David Prior (id:1135593)

斯蒂芬·吉尔伯恩 Steven Gilborn (id:1096476)

克里斯·丹尼齐奥 Cris D'Annunzio (id:1127591)

Joan LaBarbara Joan LaBarbara (id:1113794)

户田惠子 Keiko Toda (id:1051741)

西格妮·韦弗 Sigourney Weaver (id:1053569)

Bill Badalato Bill Badalato (id:1277670)

戈登·卡罗尔 Gordon Carroll (id:1005923)

大卫·吉勒 David Giler (id:1284863)

沃尔特·希尔 Walter Hill (id:1014030)

约翰·福瑞泽尔 John Frizzell (id:1276198)

达吕斯·康第 Darius Khondji (id:1028011)

Hervé Schneid Hervé Schneid (id:1046004)

Richard Pagano Richard Pagano (id:1293795)

约翰·M·德维尔 John M. Dwyer (id:1282892)

Andrew Neskoromny Andrew Neskoromny (id:1293058)

鲍勃·林伍德 Bob Ringwood (id:1295678)

迈克·史密斯森 Mike Smithson (id:1297961)

艾兰·丹格里奥 Alan D'Angerio (id:1281682)

内奥米·多恩 Naomi Donne (id:1282577)

Bill Myer Bill Myer (id:1291953)

琳达·德维塔 Linda DeVetta (id:1282321)

Barry R. Koper Barry R. Koper (id:1288888)

皮托夫 Pitof (id:1009682)

Timothy J. Lonsdale Timothy J. Lonsdale (id:1051996)

Christopher Scollard Christopher Scollard (id:1046109)

伊恩·亨特 Ian Hunter (id:1287177)

理查德·E·霍兰德尔 Richard E. Hollander (id:1286808)

埃里克·亨利 Erik Henry (id:1286464)

马修·格拉茨纳 Matthew Gratzner (id:1285331)

Bob Froehlig Bob Froehlig (id:1090157)

Dan Weeks Dan Weeks (id:1164730)

David V. Mei David V. Mei (id:1121376)

Rick Fichter Rick Fichter (id:1283660)

格拉迪·科菲 Grady Cofer (id:1280960)

Scott Schneider Scott Schneider (id:1147014)

米格尔·桑切斯 Miguel Sánchez (id:1153528)

Mike Bienstock Mike Bienstock (id:1278608)

Erik von Wodtke Erik von Wodtke (id:1166276)

Christian Clarke Christian Clarke (id:1051738)

Rich Thorne Rich Thorne (id:1299226)

Thomas Duval Thomas Duval (id:1276481)

皮托夫 Pitof (id:1009682)

Laurent Ben-Mimoun Laurent Ben-Mimoun (id:1301846)

Leah Culton Leah Culton (id:1024821)

Derek Spears Derek Spears (id:1298123)

保罗·斯凯勒 Paul Sklar (id:1297745)

Antoine Simkine Antoine Simkine (id:1029808)

Nancy Rushlow Nancy Rushlow (id:1296352)

康拉德·W·霍尔 Conrad W. Hall (id:1041863)

◎简 介

静静的宇宙,一艘名叫“贝蒂”的太空船正在飞向“御夫座”星球。船上躺着数十个被麻醉冻僵了的地球人,他们全然不知即将到来的灾难。原来,丧尽天良的军方和商人将这些人诱拐过来,要送到“御夫座”上孵化异形女皇两百年前生下的蛋。

雷普莉(西格妮?韦弗 Sigourney Weaver 饰)已成为了异形女皇生下的转世为人的异形人。她的基因里带上了异形的基因,变得特别强壮、忽明忽暗,成了“双面人”。“贝蒂”上有个叫考尔(维诺娜?赖德 Winona Ryder 饰)的年轻女人,正在设法破坏孵化异形蛋计划。当“贝蒂”来到“御夫座”,意想不到的情形发生了!

  1. ##### MediaInfo ######

  2. General

  3. Unique ID : 227398241156411281128742300831217298180 (0xAB134EE5D439644E99D6FB927BCF2B04)

  4. Complete name : Alien.Resurrection.1997.Special.Edition.BluRay.1080p.x265.10bit-MiniHD.mkv

  5. Format : Matroska

  6. Format version : Version 4

  7. File size : 7.04 GiB

  8. Duration : 1 h 56 min

  9. Overall bit rate : 8 684 kb/s

  10. Encoded date : UTC 2017-06-28 13:01:17

  11. Writing application : mkvmerge v11.0.0 ('Alive') 64bit

  12. Writing library : libebml v1.3.4 + libmatroska v1.4.5

  13. Video

  14. ID : 1

  15. Format : HEVC

  16. Format/Info : High Efficiency Video Coding

  17. Codec ID : V_MPEGH/ISO/HEVC

  18. Duration : 1 h 56 min

  19. Bit rate : 7 987 kb/s

  20. Width : 1 920 pixels

  21. Height : 820 pixels

  22. Display aspect ratio : 2.35:1

  23. Frame rate mode : Constant

  24. Frame rate : 23.976 (24000/1001/53354) FPS

  25. Bits/(Pixel*Frame) : 0.212

  26. Stream size : 6.48 GiB (92%)

  27. Default : Yes

  28. Forced : No

  29. Audio

  30. ID : 2

  31. Format : AC-3

  32. Format/Info : Audio Coding 3

  33. Commercial name : Dolby Digital

  34. Codec ID : A_AC3

  35. Duration : 1 h 56 min

  36. Bit rate mode : Constant

  37. Bit rate : 640 kb/s

  38. Channel(s) : 6 channels

  39. Channel layout : L R C LFE Ls Rs

  40. Sampling rate : 48.0 kHz

  41. Frame rate : 31.250 FPS (1536 SPF)

  42. Compression mode : Lossy

  43. Stream size : 532 MiB (7%)

  44. Language : English

  45. Service kind : Complete Main

  46. Default : Yes

  47. Forced : No

  48. Text #1

  49. ID : 3

  50. Format : PGS

  51. Muxing mode : zlib

  52. Codec ID : S_HDMV/PGS

  53. Codec ID/Info : Picture based subtitle format used on BDs/HD-DVDs

  54. Duration : 1 h 55 min

  55. Bit rate : 15.9 kb/s

  56. Count of elements : 2348

  57. Stream size : 13.2 MiB (0%)

  58. Language : English

  59. Default : Yes

  60. Forced : No

  61. Text #2

  62. ID : 4

  63. Format : PGS

  64. Muxing mode : zlib

  65. Codec ID : S_HDMV/PGS

  66. Codec ID/Info : Picture based subtitle format used on BDs/HD-DVDs

  67. Duration : 1 h 46 min

  68. Bit rate : 7 308 b/s

  69. Count of elements : 1450

  70. Stream size : 5.54 MiB (0%)

  71. Language : Chinese

  72. Default : No

  73. Forced : No

  74. Text #3

  75. ID : 5

  76. Format : PGS

  77. Muxing mode : zlib

  78. Codec ID : S_HDMV/PGS

  79. Codec ID/Info : Picture based subtitle format used on BDs/HD-DVDs

  80. Duration : 1 h 46 min

  81. Bit rate : 7 613 b/s

  82. Count of elements : 1450

  83. Stream size : 5.77 MiB (0%)

  84. Language : Chinese

  85. Default : No

  86. Forced : No

  87. Text #4

  88. ID : 6

  89. Format : PGS

  90. Muxing mode : zlib

  91. Codec ID : S_HDMV/PGS

  92. Codec ID/Info : Picture based subtitle format used on BDs/HD-DVDs

  93. Duration : 1 h 46 min

  94. Bit rate : 7 308 b/s

  95. Count of elements : 1450

  96. Stream size : 5.54 MiB (0%)

  97. Language : Chinese

  98. Default : No

  99. Forced : No

  100. Text #5

  101. ID : 7

  102. Format : PGS

  103. Muxing mode : zlib

  104. Codec ID : S_HDMV/PGS

  105. Codec ID/Info : Picture based subtitle format used on BDs/HD-DVDs

  106. Duration : 1 h 46 min

  107. Bit rate : 7 613 b/s

  108. Count of elements : 1450

  109. Stream size : 5.77 MiB (0%)

  110. Language : Chinese

  111. Default : No

  112. Forced : No

  113. Text #6

  114. ID : 8

  115. Format : PGS

  116. Muxing mode : zlib

  117. Codec ID : S_HDMV/PGS

  118. Codec ID/Info : Picture based subtitle format used on BDs/HD-DVDs

  119. Duration : 1 h 49 min

  120. Bit rate : 12.1 kb/s

  121. Count of elements : 1877

  122. Stream size : 9.45 MiB (0%)

  123. Language : Chinese

  124. Default : No

  125. Forced : No

  126. Menu

  127. 00:00:00.000 : en:Chapter 1

  128. 00:03:27.332 : en:Chapter 2

  129. 00:04:26.307 : en:Chapter 3

  130. 00:06:30.139 : en:Chapter 4

  131. 00:08:49.278 : en:Chapter 5

  132. 00:12:06.225 : en:Chapter 6

  133. 00:15:03.527 : en:Chapter 7

  134. 00:19:25.539 : en:Chapter 8

  135. 00:21:37.838 : en:Chapter 9

  136. 00:24:12.868 : en:Chapter 10

  137. 00:26:19.995 : en:Chapter 11

  138. 00:30:08.765 : en:Chapter 12

  139. 00:32:19.562 : en:Chapter 13

  140. 00:37:16.692 : en:Chapter 14

  141. 00:39:26.739 : en:Chapter 15

  142. 00:42:36.679 : en:Chapter 16

  143. 00:46:30.662 : en:Chapter 17

  144. 00:49:20.791 : en:Chapter 18

  145. 00:53:35.378 : en:Chapter 19

  146. 00:57:04.963 : en:Chapter 20

  147. 01:03:01.652 : en:Chapter 21

  148. 01:07:40.431 : en:Chapter 22

  149. 01:19:37.147 : en:Chapter 23

  150. 01:22:07.297 : en:Chapter 24

  151. 01:28:21.421 : en:Chapter 25

  152. 01:31:45.916 : en:Chapter 26

  153. 01:34:15.524 : en:Chapter 27

  154. 01:38:58.390 : en:Chapter 28

  155. 01:40:45.539 : en:Chapter 29

  156. 01:43:49.848 : en:Chapter 30

  157. 01:47:52.299 : en:Chapter 31

  158. 01:49:51.418 : en:Chapter 32


复制代码


TAGS 动作 恐怖 科幻 /

磁力链:
  • magnet:?xt=urn:btih:EE39B1075EF6E358BE0ABE1BFB2921BAABD5A26B
上传的附件:
BT9527电影天堂 1、BT9527电影天堂提供的BT文件均来源于互联网抓取,只供网友学习交流、技术提升使用。
2、我们遵守BitTorrent点对点协议原则,任何版权问题请联系原资源发布商,我们不处理任何版权纠纷,谢谢!如有争议请联系邮箱:BT9527#hotmail.com(#换成@)
3、如果您发现某页面或地址有错误,请联系站长邮箱BT9527#hotmail.com(#换成@),我们会尽快处理。您的热心是对BT9527电影天堂最大的支持。
4、本站建议去正规影院观看电影以支持电影行业发展。
最新回复 (0)

你可以在 登录 or 注册 后,对此帖发表评论!

返回
发新帖