异形3[国英多音轨/中英字幕].Alien.3.1992.Special.Edition.BluRay.1080p.x265.10bit.2Audio-MiniHD 6.38GB

版主小s 4月前 228

◎译 名 异形3 / 异形Ⅲ / Alien 3

◎片 名 Alien3

◎年 代 1992

◎产 地 美国

◎类 别 动作 / 科幻 / 恐怖

◎语 言 英语

◎上映日期 1992-05-22(美国)

◎IMDb链接 https://www.imdb.com/title/tt0103644/

◎豆瓣评分 7.2/10 (90751人评价)

◎豆瓣链接 https://movie.douban.com/subject/1297929/

◎片 长 114分钟

◎导 演 大卫·芬奇 David Fincher (id:1012521)

◎编 剧 大卫·吉勒 David Giler (id:1284863)

沃尔特·希尔 Walter Hill (id:1014030)

拉里·弗格森 Larry Ferguson (id:1283586)

丹·欧班农 Dan O'Bannon (id:1027500)

罗纳德·舒塞特 Ronald Shusett (id:1297534)

文森特·沃德 Vincent Ward (id:1005091)

◎演 员 西格妮·韦弗 Sigourney Weaver (id:1053569)

查尔斯·达顿 Charles S. Dutton (id:1054587)

查尔斯·丹斯 Charles Dance (id:1027299)

保罗·麦甘恩 Paul McGann (id:1041213)

布莱恩·格洛弗 Brian Glover (id:1099194)

拉尔夫·布朗 Ralph Brown (id:1071393)

丹尼·韦伯 Danny Webb (id:1162175)

克里斯托弗·约翰·菲尔兹 Christopher John Fields (id:1332220)

霍特·麦克卡兰尼 Holt McCallany (id:1118033)

兰斯·亨利克森 Lance Henriksen (id:1048140)

克里斯托弗·法里班克 Christopher Fairbank (id:1085042)

皮特·波斯尔思韦特 Pete Postlethwaite (id:1007023)

菲尔·戴维斯 Phil Davis (id:1025337)

户田惠子 Keiko Toda (id:1051741)

道比·欧帕瑞 Deobia Oparei (id:1326517)

汤姆·伍德鲁夫 Tom Woodruff Jr. (id:1301250)

彼得·吉尼斯 Peter Guinness (id:1348295)

卡尔·图普 Carl Toop (id:1331986)

(id:1382896)

克莱夫·曼特尔 Clive Mantle (id:1121719)

西格妮·韦弗 Sigourney Weaver (id:1053569)

沃尔特·希尔 Walter Hill (id:1014030)

大卫·吉勒 David Giler (id:1284863)

戈登·卡罗尔 Gordon Carroll (id:1005923)

艾略特·戈登塞尔 Elliot Goldenthal (id:1045307)

亚历克斯·汤姆森 Alex Thomson (id:1055867)

戴维·克劳瑟 David Crowther (id:1038591)

特里·罗林斯 Terry Rawlings (id:1295281)

诺曼·雷诺兹 Norman Reynolds (id:1295528)

Michael White Michael White (id:1160836)

弗雷德·侯尔 Fred Hole (id:1286795)

David Perry David Perry (id:1294325)

鲍勃·林伍德 Bob Ringwood (id:1295678)

格雷格·卡农 Greg Cannom (id:1280002)

尼克·杜德曼 Nick Dudman (id:1282763)

Jane Royle Jane Royle (id:1296256)

基斯·范德兰 Keith VanderLaan (id:1299886)

科林·贾米森 Colin Jamison (id:1287572)

彼得·罗勃-金 Peter Robb-King (id:1295741)

Carol Meikle Carol Meikle (id:1117562)

Susan A. Cabral Susan A. Cabral (id:1276345)

Scott Oshita Scott Oshita (id:1130199)

Roland Blancaflor Roland Blancaflor (id:1064418)

乔什·麦克拉伦 Josh McLaglen (id:1032698)

Ken Shane Ken Shane (id:1140102)

尼克·赫克斯托尔-史密斯 Nick Heckstall-Smith (id:1099035)

吉姆·瑞吉尔 Jim Rygiel (id:1296402)

朱莉娅·弗雷 Julia Frey (id:1295706)

David Jones David Jones (id:1287862)

塞恩·莫里斯 Thaine Morris (id:1292551)

米歇尔·莫恩 Michele Moen (id:1292270)

Alan G. Markowitz Alan G. Markowitz (id:1291028)

Steven Kosakura Steven Kosakura (id:1106559)

David Rosenthal David Rosenthal (id:1296109)

Rick Fichter Rick Fichter (id:1283660)

Mark Moore Mark Moore (id:1133960)

大卫·K·斯图尔特 David K. Stewart (id:1298434)

Ellen Somers Ellen Somers (id:1298051)

理查德·艾德兰德 Richard Edlund (id:1037446)

斯蒂芬·诺林顿 Stephen Norrington (id:1293293)

◎简 介

经过长时间的飞行,蕾普莉(西格妮?韦弗 Sigourney Weaver饰)搭乘的飞船并没有飞回地球!飞船返航途中发生意外,低温休眠舱在母船爆炸前脱离主船,掉进了一个黑暗、寒冷的星球。除了残存的主教外,只有蕾普莉一人生还。

这里是地球的一个外星废弃矿井,现在成了一个管制危险犯人的监狱。蕾普莉在医生的救助下恢复了健康。随着蕾普莉的到来,这里的犯人开始一个一个被神秘杀害。当局以为是犯人内部的犯罪,然而蕾普莉隐隐知道没这么简单。

当她找出主教的残体连接上电脑查看飞行记录后,证实了她的想法:异形来了。

◎获奖情况 (共2项)

第65届奥斯卡金像奖 (1993)

最佳视觉效果(提名)

第46届英国电影学院奖 (1993)

电影奖 最佳特殊视觉效果(提名)

  1. ##### MediaInfo ######

  2. General

  3. Unique ID : 230396175348840198967014172097681670471 (0xAD54B0771F5069118EF7FE978285C147)

  4. Complete name : Alien.3.1992.Special.Edition.BluRay.1080p.x265.10bit.2Audio-MiniHD.mkv

  5. Format : Matroska

  6. Format version : Version 4

  7. File size : 6.38 GiB

  8. Duration : 2 h 24 min

  9. Overall bit rate : 6 306 kb/s

  10. Encoded date : UTC 2017-06-28 12:44:21

  11. Writing application : mkvmerge v11.0.0 ('Alive') 64bit

  12. Writing library : libebml v1.3.4 + libmatroska v1.4.5

  13. Video

  14. ID : 1

  15. Format : HEVC

  16. Format/Info : High Efficiency Video Coding

  17. Codec ID : V_MPEGH/ISO/HEVC

  18. Duration : 2 h 24 min

  19. Bit rate : 5 133 kb/s

  20. Width : 1 920 pixels

  21. Height : 810 pixels

  22. Display aspect ratio : 2.40:1

  23. Frame rate mode : Constant

  24. Frame rate : 23.976 (24000/1001/53354) FPS

  25. Bits/(Pixel*Frame) : 0.138

  26. Stream size : 5.19 GiB (81%)

  27. Default : Yes

  28. Forced : No

  29. Audio #1

  30. ID : 2

  31. Format : AC-3

  32. Format/Info : Audio Coding 3

  33. Commercial name : Dolby Digital

  34. Codec ID : A_AC3

  35. Duration : 2 h 24 min

  36. Bit rate mode : Constant

  37. Bit rate : 640 kb/s

  38. Channel(s) : 6 channels

  39. Channel layout : L R C LFE Ls Rs

  40. Sampling rate : 48.0 kHz

  41. Frame rate : 31.250 FPS (1536 SPF)

  42. Compression mode : Lossy

  43. Stream size : 663 MiB (10%)

  44. Language : English

  45. Service kind : Complete Main

  46. Default : Yes

  47. Forced : No

  48. Audio #2

  49. ID : 3

  50. Format : AC-3

  51. Format/Info : Audio Coding 3

  52. Commercial name : Dolby Digital

  53. Codec ID : A_AC3

  54. Duration : 2 h 24 min

  55. Bit rate mode : Constant

  56. Bit rate : 448 kb/s

  57. Channel(s) : 6 channels

  58. Channel layout : L R C LFE Ls Rs

  59. Sampling rate : 48.0 kHz

  60. Frame rate : 31.250 FPS (1536 SPF)

  61. Compression mode : Lossy

  62. Stream size : 463 MiB (7%)

  63. Language : Chinese

  64. Service kind : Complete Main

  65. Default : No

  66. Forced : No

  67. Text #1

  68. ID : 4

  69. Format : PGS

  70. Muxing mode : zlib

  71. Codec ID : S_HDMV/PGS

  72. Codec ID/Info : Picture based subtitle format used on BDs/HD-DVDs

  73. Duration : 2 h 23 min

  74. Bit rate : 23.2 kb/s

  75. Count of elements : 3132

  76. Stream size : 23.8 MiB (0%)

  77. Language : English

  78. Default : Yes

  79. Forced : No

  80. Text #2

  81. ID : 5

  82. Format : PGS

  83. Muxing mode : zlib

  84. Codec ID : S_HDMV/PGS

  85. Codec ID/Info : Picture based subtitle format used on BDs/HD-DVDs

  86. Duration : 2 h 17 min

  87. Bit rate : 11.4 kb/s

  88. Count of elements : 2374

  89. Stream size : 11.2 MiB (0%)

  90. Language : Chinese

  91. Default : No

  92. Forced : No

  93. Text #3

  94. ID : 6

  95. Format : PGS

  96. Muxing mode : zlib

  97. Codec ID : S_HDMV/PGS

  98. Codec ID/Info : Picture based subtitle format used on BDs/HD-DVDs

  99. Duration : 2 h 17 min

  100. Bit rate : 11.9 kb/s

  101. Count of elements : 2374

  102. Stream size : 11.7 MiB (0%)

  103. Language : Chinese

  104. Default : No

  105. Forced : No

  106. Text #4

  107. ID : 7

  108. Format : PGS

  109. Muxing mode : zlib

  110. Codec ID : S_HDMV/PGS

  111. Codec ID/Info : Picture based subtitle format used on BDs/HD-DVDs

  112. Duration : 2 h 17 min

  113. Bit rate : 11.4 kb/s

  114. Count of elements : 2374

  115. Stream size : 11.2 MiB (0%)

  116. Language : Chinese

  117. Default : No

  118. Forced : No

  119. Text #5

  120. ID : 8

  121. Format : PGS

  122. Muxing mode : zlib

  123. Codec ID : S_HDMV/PGS

  124. Codec ID/Info : Picture based subtitle format used on BDs/HD-DVDs

  125. Duration : 2 h 17 min

  126. Bit rate : 11.9 kb/s

  127. Count of elements : 2374

  128. Stream size : 11.7 MiB (0%)

  129. Language : Chinese

  130. Default : No

  131. Forced : No

  132. Text #6

  133. ID : 9

  134. Format : PGS

  135. Muxing mode : zlib

  136. Codec ID : S_HDMV/PGS

  137. Codec ID/Info : Picture based subtitle format used on BDs/HD-DVDs

  138. Duration : 2 h 18 min

  139. Bit rate : 16.7 kb/s

  140. Count of elements : 2546

  141. Stream size : 16.5 MiB (0%)

  142. Language : Chinese

  143. Default : No

  144. Forced : No

  145. Menu

  146. 00:00:00.000 : en:Chapter 1

  147. 00:03:42.972 : en:Chapter 2

  148. 00:04:31.479 : en:Chapter 3

  149. 00:09:29.694 : en:Chapter 4

  150. 00:12:13.399 : en:Chapter 5

  151. 00:15:01.442 : en:Chapter 6

  152. 00:16:33.700 : en:Chapter 7

  153. 00:24:27.924 : en:Chapter 8

  154. 00:26:31.756 : en:Chapter 9

  155. 00:31:07.740 : en:Chapter 10

  156. 00:33:12.824 : en:Chapter 11

  157. 00:35:53.150 : en:Chapter 12

  158. 00:37:43.260 : en:Chapter 13

  159. 00:43:32.735 : en:Chapter 14

  160. 00:46:11.268 : en:Chapter 15

  161. 00:49:15.285 : en:Chapter 16

  162. 00:51:46.811 : en:Chapter 17

  163. 00:55:52.056 : en:Chapter 18

  164. 00:59:33.319 : en:Chapter 19

  165. 01:02:51.434 : en:Chapter 20

  166. 01:07:33.257 : en:Chapter 21

  167. 01:11:03.634 : en:Chapter 22

  168. 01:14:12.823 : en:Chapter 23

  169. 01:17:08.874 : en:Chapter 24

  170. 01:19:05.699 : en:Chapter 25

  171. 01:24:41.034 : en:Chapter 26

  172. 01:26:19.507 : en:Chapter 27

  173. 01:28:02.860 : en:Chapter 28

  174. 01:29:09.927 : en:Chapter 29

  175. 01:34:12.771 : en:Chapter 30

  176. 01:37:18.707 : en:Chapter 31

  177. 01:39:29.254 : en:Chapter 32

  178. 01:42:47.452 : en:Chapter 33

  179. 01:46:07.444 : en:Chapter 34

  180. 01:49:57.715 : en:Chapter 35

  181. 01:54:04.796 : en:Chapter 36

  182. 01:56:30.024 : en:Chapter 37

  183. 01:58:32.897 : en:Chapter 38

  184. 02:05:23.807 : en:Chapter 39

  185. 02:08:09.181 : en:Chapter 40

  186. 02:10:50.175 : en:Chapter 41

  187. 02:12:42.913 : en:Chapter 42

  188. 02:16:18.461 : en:Chapter 43

  189. 02:19:09.966 : en:Chapter 44


复制代码


TAGS 动作 恐怖 科幻 /

磁力链:
  • magnet:?xt=urn:btih:436770969F0777C0D5E1E80A340C68C0BF825DB3
上传的附件:
BT9527电影天堂 1、BT9527电影天堂提供的BT文件均来源于互联网抓取,只供网友学习交流、技术提升使用。
2、我们遵守BitTorrent点对点协议原则,任何版权问题请联系原资源发布商,我们不处理任何版权纠纷,谢谢!如有争议请联系邮箱:BT9527#hotmail.com(#换成@)
3、如果您发现某页面或地址有错误,请联系站长邮箱BT9527#hotmail.com(#换成@),我们会尽快处理。您的热心是对BT9527电影天堂最大的支持。
4、本站建议去正规影院观看电影以支持电影行业发展。
最新回复 (0)

你可以在 登录 or 注册 后,对此帖发表评论!

返回
发新帖