异形2[国英多音轨/中英字幕].Aliens.1986.Special.Edition.BluRay.1080p.x265.10bit.2Audio-MiniHD 9.36GB

版主小s 4月前 193

◎译 名 异形2 / 异形Ⅱ / 异形续集

◎片 名 Aliens

◎年 代 1986

◎产 地 美国

◎类 别 动作 / 科幻 / 惊悚 / 冒险

◎语 言 英语

◎上映日期 1986-07-18(美国)

◎IMDb链接 https://www.imdb.com/title/tt0090605/

◎豆瓣评分 8.1/10 (136152人评价)

◎豆瓣链接 https://movie.douban.com/subject/1293792/

◎片 长 137分钟

◎导 演 詹姆斯·卡梅隆 James Cameron (id:1022571)

◎编 剧 詹姆斯·卡梅隆 James Cameron (id:1022571)

大卫·吉勒 David Giler (id:1284863)

沃尔特·希尔 Walter Hill (id:1014030)

丹·欧班农 Dan O'Bannon (id:1027500)

罗纳德·舒塞特 Ronald Shusett (id:1297534)

◎演 员 西格妮·韦弗 Sigourney Weaver (id:1053569)

凯莉·赫恩 Carrie Henn (id:1054834)

迈克尔·比恩 Michael Biehn (id:1025190)

保罗·雷瑟 Paul Reiser (id:1000222)

兰斯·亨利克森 Lance Henriksen (id:1048140)

比尔·帕克斯顿 Bill Paxton (id:1048134)

威廉·霍普 William Hope (id:1323341)

詹妮特·戈德斯坦恩 Jenette Goldstein (id:1004705)

阿尔·马修斯 Al Matthews (id:1122237)

马克·罗斯顿 Mark Rolston (id:1054892)

里科·罗斯 Ricco Ross (id:1148330)

科莱特·希勒 Colette Hiller (id:1375566)

丹尼尔·卡什 Daniel Kash (id:1108474)

辛西娅·戴尔·斯科特 Cynthia Dale Scott (id:1375567)

提普·蒂平 Tip Tipping (id:1152813)

保罗·马克斯韦尔 Paul Maxwell (id:1041538)

约翰·利斯 John Lees (id:1109920)

卡尔·图普 Carl Toop (id:1331986)

户田惠子 Keiko Toda (id:1051741)

大卫·吉勒 David Giler (id:1284863)

詹姆斯·霍纳 James Horner (id:1025277)

Michael Lamont Michael Lamont (id:1289331)

斯坦·温斯顿 Stan Winston (id:1002831)

Ken Court Ken Court (id:1281379)

弗雷德·侯尔 Fred Hole (id:1286795)

艾玛·波特斯 Emma Porteus (id:1013071)

彼得·罗勃-金 Peter Robb-King (id:1295741)

Elaine Bowerbank Elaine Bowerbank (id:1279091)

托尼·加德纳 Tony Gardner (id:1284564)

布赖恩·约翰逊 Brian Johnson (id:1287773)

托尼·加德纳 Tony Gardner (id:1284564)

Peter Russell Peter Russell (id:1296353)

Robert Gavin Robert Gavin (id:1284638)

Doug Beswick Doug Beswick (id:1278546)

苏赞妮·M·本森 Suzanne M. Benson (id:1278382)

史蒂文·贝格 Steven Begg (id:1276354)

布莱恩·史密西斯 Brian Smithies (id:1297958)

罗伯特·斯科塔克 Robert Skotak (id:1297751)

派特·迈克朗 Pat McClung (id:1291484)

Alan G. Markowitz Alan G. Markowitz (id:1291028)

斯蒂芬·诺林顿 Stephen Norrington (id:1293293)

◎简 介

蕾普莉(西格妮?韦弗 Sigourney Weaver饰)是首次探险任务遇到异形后的唯一生还者,她一直冬眠直到被救援队救回地球。当她睁开眼睛后,才发现自己已经冬眠了57年!

期间,人类已经移居到了异形所在的星球。蕾普莉知道后,马上向当局报局该星球上异形的情况,但却被当局认为要么精神不正常,要么谎话连篇。蕾普莉见当局对她的说话不予理睬,便决心不再涉足和异形有关的任何事。

果不其然,在那个异形所在的那个星球上定居的人忽然和地球中断了联系。这时当局才注意到蕾普莉之前汇报的情况,决定派出军队去营救。蕾普莉被说服参与营救行动。

又一场腥风血雨的战斗展开了!

◎获奖情况 (共7项)

第59届奥斯卡金像奖 (1987)

最佳女主角(提名)

└──西格妮·韦弗 (id:1053569)

最佳剪辑(提名)

└──雷·拉夫乔伊 (id:1005813)

最佳视觉效果

最佳音效剪辑

└──唐·夏普 (id:1297344)

最佳音响(提名)

最佳艺术指导(提名)

最佳原创配乐(提名)

└──詹姆斯·霍纳 (id:1025277)

  1. ##### MediaInfo ######

  2. General

  3. Unique ID : 248133924957939406967279049678201492130 (0xBAACDB0A88A7520BA745471E5F5F12A2)

  4. Complete name : Aliens.1986.Special.Edition.BluRay.1080p.x265.10bit.2Audio-MiniHD.mkv

  5. Format : Matroska

  6. Format version : Version 4

  7. File size : 9.35 GiB

  8. Duration : 2 h 34 min

  9. Overall bit rate : 8 670 kb/s

  10. Encoded date : UTC 2017-06-28 12:16:39

  11. Writing application : mkvmerge v11.0.0 ('Alive') 64bit

  12. Writing library : libebml v1.3.4 + libmatroska v1.4.5

  13. Video

  14. ID : 1

  15. Format : HEVC

  16. Format/Info : High Efficiency Video Coding

  17. Codec ID : V_MPEGH/ISO/HEVC

  18. Duration : 2 h 34 min

  19. Bit rate : 7 527 kb/s

  20. Width : 1 920 pixels

  21. Height : 1 038 pixels

  22. Display aspect ratio : 1.85:1

  23. Frame rate mode : Constant

  24. Frame rate : 23.976 (24000/1001/53354) FPS

  25. Bits/(Pixel*Frame) : 0.158

  26. Stream size : 8.12 GiB (87%)

  27. Default : Yes

  28. Forced : No

  29. Audio #1

  30. ID : 2

  31. Format : AC-3

  32. Format/Info : Audio Coding 3

  33. Commercial name : Dolby Digital

  34. Codec ID : A_AC3

  35. Duration : 2 h 34 min

  36. Bit rate mode : Constant

  37. Bit rate : 640 kb/s

  38. Channel(s) : 6 channels

  39. Channel layout : L R C LFE Ls Rs

  40. Sampling rate : 48.0 kHz

  41. Frame rate : 31.250 FPS (1536 SPF)

  42. Compression mode : Lossy

  43. Stream size : 707 MiB (7%)

  44. Language : English

  45. Service kind : Complete Main

  46. Default : Yes

  47. Forced : No

  48. Audio #2

  49. ID : 3

  50. Format : AC-3

  51. Format/Info : Audio Coding 3

  52. Commercial name : Dolby Digital

  53. Codec ID : A_AC3

  54. Duration : 2 h 34 min

  55. Bit rate mode : Constant

  56. Bit rate : 448 kb/s

  57. Channel(s) : 6 channels

  58. Channel layout : L R C LFE Ls Rs

  59. Sampling rate : 48.0 kHz

  60. Frame rate : 31.250 FPS (1536 SPF)

  61. Compression mode : Lossy

  62. Delay relative to video : 200 ms

  63. Stream size : 495 MiB (5%)

  64. Language : Chinese

  65. Service kind : Complete Main

  66. Default : No

  67. Forced : No

  68. Text #1

  69. ID : 4

  70. Format : PGS

  71. Muxing mode : zlib

  72. Codec ID : S_HDMV/PGS

  73. Codec ID/Info : Picture based subtitle format used on BDs/HD-DVDs

  74. Duration : 2 h 31 min

  75. Bit rate : 15.5 kb/s

  76. Count of elements : 3192

  77. Stream size : 16.8 MiB (0%)

  78. Language : English

  79. Default : Yes

  80. Forced : No

  81. Text #2

  82. ID : 5

  83. Format : PGS

  84. Muxing mode : zlib

  85. Codec ID : S_HDMV/PGS

  86. Codec ID/Info : Picture based subtitle format used on BDs/HD-DVDs

  87. Duration : 2 h 30 min

  88. Bit rate : 13.4 kb/s

  89. Count of elements : 2885

  90. Stream size : 14.4 MiB (0%)

  91. Language : Chinese

  92. Default : No

  93. Forced : No

  94. Text #3

  95. ID : 6

  96. Format : PGS

  97. Muxing mode : zlib

  98. Codec ID : S_HDMV/PGS

  99. Codec ID/Info : Picture based subtitle format used on BDs/HD-DVDs

  100. Duration : 2 h 30 min

  101. Bit rate : 10.3 kb/s

  102. Count of elements : 2988

  103. Stream size : 11.1 MiB (0%)

  104. Language : Chinese

  105. Default : No

  106. Forced : No

  107. Text #4

  108. ID : 7

  109. Format : PGS

  110. Muxing mode : zlib

  111. Codec ID : S_HDMV/PGS

  112. Codec ID/Info : Picture based subtitle format used on BDs/HD-DVDs

  113. Duration : 2 h 31 min

  114. Bit rate : 14.5 kb/s

  115. Count of elements : 2968

  116. Stream size : 15.7 MiB (0%)

  117. Language : Chinese

  118. Default : No

  119. Forced : No

  120. Menu

  121. 00:00:00.000 : en:Chapter 1

  122. 00:02:06.751 : en:Chapter 2

  123. 00:05:15.732 : en:Chapter 3

  124. 00:08:34.347 : en:Chapter 4

  125. 00:10:52.109 : en:Chapter 5

  126. 00:15:13.620 : en:Chapter 6

  127. 00:17:25.002 : en:Chapter 7

  128. 00:20:54.127 : en:Chapter 8

  129. 00:25:02.500 : en:Chapter 9

  130. 00:25:57.472 : en:Chapter 10

  131. 00:30:03.718 : en:Chapter 11

  132. 00:32:53.888 : en:Chapter 12

  133. 00:35:56.862 : en:Chapter 13

  134. 00:38:03.531 : en:Chapter 14

  135. 00:45:40.070 : en:Chapter 15

  136. 00:52:28.520 : en:Chapter 16

  137. 00:54:48.076 : en:Chapter 17

  138. 00:56:09.115 : en:Chapter 18

  139. 01:00:11.107 : en:Chapter 19

  140. 01:04:47.508 : en:Chapter 20

  141. 01:10:10.998 : en:Chapter 21

  142. 01:12:51.992 : en:Chapter 22

  143. 01:16:22.869 : en:Chapter 23

  144. 01:21:22.252 : en:Chapter 24

  145. 01:23:17.200 : en:Chapter 25

  146. 01:26:21.134 : en:Chapter 26

  147. 01:31:22.059 : en:Chapter 27

  148. 01:34:37.421 : en:Chapter 28

  149. 01:37:25.255 : en:Chapter 29

  150. 01:38:40.706 : en:Chapter 30

  151. 01:41:23.243 : en:Chapter 31

  152. 01:45:03.463 : en:Chapter 32

  153. 01:47:15.553 : en:Chapter 33

  154. 01:51:41.402 : en:Chapter 34

  155. 01:52:58.604 : en:Chapter 35

  156. 02:02:10.364 : en:Chapter 36

  157. 02:05:54.046 : en:Chapter 37

  158. 02:07:41.987 : en:Chapter 38

  159. 02:13:15.528 : en:Chapter 39

  160. 02:17:29.616 : en:Chapter 40

  161. 02:22:24.702 : en:Chapter 41

  162. 02:23:16.712 : en:Chapter 42

  163. 02:30:16.006 : en:Chapter 43

  164. 02:31:36.462 : en:Chapter 44


复制代码


TAGS 动作 冒险 惊悚 科幻 /

磁力链:
  • magnet:?xt=urn:btih:39168655BC95914D00DCEA35387D7D1428106CF1
上传的附件:
BT9527电影天堂 1、BT9527电影天堂提供的BT文件均来源于互联网抓取,只供网友学习交流、技术提升使用。
2、我们遵守BitTorrent点对点协议原则,任何版权问题请联系原资源发布商,我们不处理任何版权纠纷,谢谢!如有争议请联系邮箱:BT9527#hotmail.com(#换成@)
3、如果您发现某页面或地址有错误,请联系站长邮箱BT9527#hotmail.com(#换成@),我们会尽快处理。您的热心是对BT9527电影天堂最大的支持。
4、本站建议去正规影院观看电影以支持电影行业发展。
最新回复 (0)

你可以在 登录 or 注册 后,对此帖发表评论!

返回
发新帖