异形[国英多音轨/中英字幕].Alien.1979.Directors.Cut.BluRay.1080p.x265.10bit.2Audio-MiniHD 6.06GB

版主小s 4月前 197

◎译 名 异形 / 异形杀手 / Star Beast

◎片 名 Alien

◎年 代 1979

◎产 地 英国 / 美国

◎类 别 科幻 / 恐怖

◎语 言 英语

◎上映日期 1979-05-25(美国)

◎IMDb链接 https://www.imdb.com/title/tt0078748/

◎豆瓣评分 8.2/10 (218859人评价)

◎豆瓣链接 https://movie.douban.com/subject/1300868/

◎片 长 117分钟

◎导 演 雷德利·斯科特 Ridley Scott (id:1054416)

◎编 剧 丹·欧班农 Dan O'Bannon (id:1027500)

罗纳德·舒塞特 Ronald Shusett (id:1297534)

◎演 员 西格妮·韦弗 Sigourney Weaver (id:1053569)

汤姆·斯凯里特 Tom Skerritt (id:1049603)

维罗尼卡·卡维特 Veronica Cartwright (id:1002749)

哈利·戴恩·斯坦通 Harry Dean Stanton (id:1010582)

约翰·赫特 John Hurt (id:1004587)

伊安·霍姆 Ian Holm (id:1049594)

亚非特·科托 Yaphet Kotto (id:1041210)

博拉吉·巴迪乔 Bolaji Badejo (id:1375564)

海伦·霍顿 Helen Horton (id:1375565)

詹姆斯·霍纳 James Horner (id:1025277)

埃迪·鲍威尔 Eddie Powell (id:1136804)

户田惠子 Keiko Toda (id:1051741)

沃尔特·希尔 Walter Hill (id:1014030)

罗纳德·舒塞特 Ronald Shusett (id:1297534)

戈登·卡罗尔 Gordon Carroll (id:1005923)

大卫·吉勒 David Giler (id:1284863)

杰瑞·高德史密斯 Jerry Goldsmith (id:1007116)

德里克·万林特 Derek Vanlint (id:1299884)

特里·罗林斯 Terry Rawlings (id:1295281)

戴维·克劳瑟 David Crowther (id:1038591)

莱斯利·迪利 Leslie Dilley (id:1282443)

迈克尔·西摩 Michael Seymour (id:1297273)

罗杰·克里斯蒂安 Roger Christian (id:1276235)

伊恩·惠特克 Ian Whittaker (id:1300844)

约翰·莫罗 John Mollo (id:1033355)

Tommie Manderson Tommie Manderson (id:1290855)

Pat Hay Pat Hay (id:1286260)

莎拉·蒙扎尼 Sarah Monzani (id:1292396)

丹尼斯·艾林 Denys Ayling (id:1012009)

◎简 介

未来的世界,人类已能轻松穿梭于星际之间,在太空中展开商业活动。“诺史莫”是在太空活动的众多星际商业运输船之一。一次,它完成任务满载太空矿石返航地球时,突然收到了一组奇怪的信号,由于这可能是求救信号,飞船接到指令前往信号源地进行搜救。

经过一段飞行后,飞船终于抵达信号源发出的地方。船员们发现此处果然有一艘坠毁的飞船,只是,经过一番搜索,他们发现该船的船员们都早已死亡,化为化石。此时,留在“诺史莫”号的第三指挥官里普利已经破译出该信号并不是求救信号,而是警告信号!队员的生死搏斗开始了!

◎获奖情况 (共2项)

第52届奥斯卡金像奖 (1980)

最佳视觉效果

最佳艺术指导(提名)

  1. ##### MediaInfo ######

  2. General

  3. Unique ID : 238405497241596267664239228414419887189 (0xB35B3A85D198C0178F76A65C8DED6455)

  4. Complete name : Alien.1979.Directors.Cut.BluRay.1080p.x265.10bit.2Audio-MiniHD.mkv

  5. Format : Matroska

  6. Format version : Version 4

  7. File size : 6.06 GiB

  8. Duration : 1 h 55 min

  9. Overall bit rate : 7 493 kb/s

  10. Encoded date : UTC 2017-06-28 12:11:56

  11. Writing application : mkvmerge v11.0.0 ('Alive') 64bit

  12. Writing library : libebml v1.3.4 + libmatroska v1.4.5

  13. Video

  14. ID : 1

  15. Format : HEVC

  16. Format/Info : High Efficiency Video Coding

  17. Codec ID : V_MPEGH/ISO/HEVC

  18. Duration : 1 h 55 min

  19. Bit rate : 6 346 kb/s

  20. Width : 1 920 pixels

  21. Height : 818 pixels

  22. Display aspect ratio : 2.35:1

  23. Frame rate mode : Constant

  24. Frame rate : 23.976 (24000/1001/53354) FPS

  25. Bits/(Pixel*Frame) : 0.169

  26. Stream size : 5.13 GiB (85%)

  27. Default : Yes

  28. Forced : No

  29. Audio #1

  30. ID : 2

  31. Format : AC-3

  32. Format/Info : Audio Coding 3

  33. Commercial name : Dolby Digital

  34. Codec ID : A_AC3

  35. Duration : 1 h 55 min

  36. Bit rate mode : Constant

  37. Bit rate : 640 kb/s

  38. Channel(s) : 6 channels

  39. Channel layout : L R C LFE Ls Rs

  40. Sampling rate : 48.0 kHz

  41. Frame rate : 31.250 FPS (1536 SPF)

  42. Compression mode : Lossy

  43. Stream size : 530 MiB (9%)

  44. Language : English

  45. Service kind : Complete Main

  46. Default : Yes

  47. Forced : No

  48. Audio #2

  49. ID : 3

  50. Format : AC-3

  51. Format/Info : Audio Coding 3

  52. Commercial name : Dolby Digital

  53. Codec ID : A_AC3

  54. Duration : 1 h 55 min

  55. Bit rate mode : Constant

  56. Bit rate : 448 kb/s

  57. Channel(s) : 6 channels

  58. Channel layout : L R C LFE Ls Rs

  59. Sampling rate : 48.0 kHz

  60. Frame rate : 31.250 FPS (1536 SPF)

  61. Compression mode : Lossy

  62. Stream size : 371 MiB (6%)

  63. Language : Chinese

  64. Service kind : Complete Main

  65. Default : No

  66. Forced : No

  67. Text #1

  68. ID : 4

  69. Format : PGS

  70. Muxing mode : zlib

  71. Codec ID : S_HDMV/PGS

  72. Codec ID/Info : Picture based subtitle format used on BDs/HD-DVDs

  73. Duration : 1 h 53 min

  74. Bit rate : 19.3 kb/s

  75. Count of elements : 2096

  76. Stream size : 15.6 MiB (0%)

  77. Language : English

  78. Default : Yes

  79. Forced : No

  80. Text #2

  81. ID : 5

  82. Format : PGS

  83. Muxing mode : zlib

  84. Codec ID : S_HDMV/PGS

  85. Codec ID/Info : Picture based subtitle format used on BDs/HD-DVDs

  86. Duration : 1 h 50 min

  87. Bit rate : 7 325 b/s

  88. Count of elements : 1420

  89. Stream size : 5.81 MiB (0%)

  90. Language : Chinese

  91. Default : No

  92. Forced : No

  93. Text #3

  94. ID : 6

  95. Format : PGS

  96. Muxing mode : zlib

  97. Codec ID : S_HDMV/PGS

  98. Codec ID/Info : Picture based subtitle format used on BDs/HD-DVDs

  99. Duration : 1 h 50 min

  100. Bit rate : 7 670 b/s

  101. Count of elements : 1420

  102. Stream size : 6.08 MiB (0%)

  103. Language : Chinese

  104. Default : No

  105. Forced : No

  106. Text #4

  107. ID : 7

  108. Format : PGS

  109. Muxing mode : zlib

  110. Codec ID : S_HDMV/PGS

  111. Codec ID/Info : Picture based subtitle format used on BDs/HD-DVDs

  112. Duration : 1 h 50 min

  113. Bit rate : 7 324 b/s

  114. Count of elements : 1420

  115. Stream size : 5.81 MiB (0%)

  116. Language : Chinese

  117. Default : No

  118. Forced : No

  119. Text #5

  120. ID : 8

  121. Format : PGS

  122. Muxing mode : zlib

  123. Codec ID : S_HDMV/PGS

  124. Codec ID/Info : Picture based subtitle format used on BDs/HD-DVDs

  125. Duration : 1 h 50 min

  126. Bit rate : 7 670 b/s

  127. Count of elements : 1420

  128. Stream size : 6.08 MiB (0%)

  129. Language : Chinese

  130. Default : No

  131. Forced : No

  132. Text #6

  133. ID : 9

  134. Format : PGS

  135. Muxing mode : zlib

  136. Codec ID : S_HDMV/PGS

  137. Codec ID/Info : Picture based subtitle format used on BDs/HD-DVDs

  138. Duration : 1 h 52 min

  139. Bit rate : 10.4 kb/s

  140. Count of elements : 1611

  141. Stream size : 8.36 MiB (0%)

  142. Language : Chinese

  143. Default : No

  144. Forced : No

  145. Menu

  146. 00:00:00.000 : en:Chapter 1

  147. 00:02:01.121 : en:Chapter 2

  148. 00:04:40.154 : en:Chapter 3

  149. 00:07:55.850 : en:Chapter 4

  150. 00:09:10.508 : en:Chapter 5

  151. 00:12:40.426 : en:Chapter 6

  152. 00:14:16.105 : en:Chapter 7

  153. 00:20:05.912 : en:Chapter 8

  154. 00:23:22.651 : en:Chapter 9

  155. 00:25:05.253 : en:Chapter 10

  156. 00:27:50.877 : en:Chapter 11

  157. 00:31:51.826 : en:Chapter 12

  158. 00:35:32.922 : en:Chapter 13

  159. 00:37:04.347 : en:Chapter 14

  160. 00:40:33.889 : en:Chapter 15

  161. 00:43:26.520 : en:Chapter 16

  162. 00:47:28.303 : en:Chapter 17

  163. 00:50:06.127 : en:Chapter 18

  164. 00:51:44.309 : en:Chapter 19

  165. 00:54:24.677 : en:Chapter 20

  166. 00:59:01.746 : en:Chapter 21

  167. 01:00:26.873 : en:Chapter 22

  168. 01:03:36.312 : en:Chapter 23

  169. 01:08:18.719 : en:Chapter 24

  170. 01:10:04.950 : en:Chapter 25

  171. 01:12:52.409 : en:Chapter 26

  172. 01:14:33.927 : en:Chapter 27

  173. 01:17:14.713 : en:Chapter 28

  174. 01:19:02.904 : en:Chapter 29

  175. 01:22:34.282 : en:Chapter 30

  176. 01:26:39.235 : en:Chapter 31

  177. 01:28:49.573 : en:Chapter 32

  178. 01:30:48.734 : en:Chapter 33

  179. 01:32:39.762 : en:Chapter 34

  180. 01:34:23.782 : en:Chapter 35

  181. 01:37:45.150 : en:Chapter 36

  182. 01:39:14.448 : en:Chapter 37

  183. 01:43:28.243 : en:Chapter 38

  184. 01:46:17.954 : en:Chapter 39

  185. 01:53:05.611 : en:Chapter 40


复制代码


TAGS 恐怖 科幻 /

磁力链:
  • magnet:?xt=urn:btih:F88945A22B318299A2DED5DFC2BDE28A6625DE2B
上传的附件:
BT9527电影天堂 1、BT9527电影天堂提供的BT文件均来源于互联网抓取,只供网友学习交流、技术提升使用。
2、我们遵守BitTorrent点对点协议原则,任何版权问题请联系原资源发布商,我们不处理任何版权纠纷,谢谢!如有争议请联系邮箱:BT9527#hotmail.com(#换成@)
3、如果您发现某页面或地址有错误,请联系站长邮箱BT9527#hotmail.com(#换成@),我们会尽快处理。您的热心是对BT9527电影天堂最大的支持。
4、本站建议去正规影院观看电影以支持电影行业发展。
最新回复 (0)

你可以在 登录 or 注册 后,对此帖发表评论!

返回