建国大业[国语音轨/简繁英字幕].The.Founding.of.a.Republic.2009.BluRay.1080p.x265.10bit-MiniHD 5.70GB

版主小s 1月前 92

◎译 名 建国大业 / The Founding of a Republic

◎年 代 2009

◎产 地 中国大陆 / 中国香港

◎类 别 剧情 / 历史

◎语 言 汉语普通话 / 英语 / 粤语

◎上映日期 2009-09-16(中国大陆)

◎IMDb链接 https://www.imdb.com/title/tt1438461/

◎豆瓣链接 https://movie.douban.com/subject/3543690/

◎片 长 138分钟

◎导 演 韩三平 Sanping Han (id:1274843)

黄建新 Jianxin Huang (id:1019896)

◎编 剧 王兴东 Xingdong Wang (id:1311431)

陈宝光 Baoguang Chen (id:1324196)

陈宝国 Baoguo Chen (id:1274584)

◎演 员 唐国强 Guoqiang Tang (id:1152771)

张国立 Guoli Zhang (id:1015115)

许晴 Qing Xu (id:1005268)

刘劲 Jin Liu (id:1314473)

陈坤 Kun Chen (id:1053618)

王伍福 Wufu Wang (id:1314011)

王学圻 Xueqi Wang (id:1054562)

刘沙 Sha Liu (id:1318686)

王健 Jian Wang (id:1318552)

金鑫 Xin Jin (id:1275176)

王冰 Bing Wang (id:1275175)

邬君梅 Vivian Wu (id:1004773)

修宗迪 Zongdi Xiu (id:1313754)

刘仪伟 Yiwei Liu (id:1315726)

李连杰 Jet Li (id:1025146)

胡军 Jun Hu (id:1032540)

孙红雷 Honglei Sun (id:1053581)

尤勇智 Yongzhi You (id:1301518)

孙兴 Hing Suen (id:1150721)

陈凯歌 Kaige Chen (id:1023040)

刘烨 Ye Liu (id:1000572)

吴刚 Gang Wu (id:1274840)

陶泽如 Zeru Tao (id:1039767)

黄圣依 Eva Huang (id:1005110)

黎明 Leon Lai (id:1036978)

陈好 Hao Chen (id:1037748)

黄晓明 Xiaoming Huang (id:1041404)

范伟 Wei Fan (id:1051526)

张涵予 Hanyu Zhang (id:1274319)

姜文 Wen Jiang (id:1021999)

曹可凡 Kefan Cao (id:1314007)

徐帆 Fan Xu (id:1017207)

冯小刚 Xiaogang Feng (id:1274255)

成龙 Jackie Chan (id:1054531)

佟大为 Dawei Tong (id:1009179)

丁志城 Zhicheng Ding (id:1314198)

王宝强 Baoqiang Wang (id:1274388)

葛优 You Ge (id:1000905)

陈红 Hong Chen (id:1037742)

陈道明 Daoming Chen (id:1045565)

郭晓东 Xiaodong Guo (id:1274230)

王学兵 Xuebing Wang (id:1274550)

冯远征 Yuanzheng Feng (id:1043136)

甄子丹 Donnie Yen (id:1025194)

英达 Da Ying (id:1011479)

邓超 Chao Deng (id:1274235)

冯巩 Gong Feng (id:1274535)

郭德纲 Degang Guo (id:1274305)

梁家辉 Tony Leung (id:1118167)

苗圃 Pu Miao (id:1033846)

宁静 Jing Ning (id:1046132)

张秋芳 Qiufang Zhang (id:1316618)

章子怡 Ziyi Zhang (id:1041014)

沈傲君 Aojun Shen (id:1198257)

刘德华 Andy Lau (id:1054424)

陈宝国 Baoguo Chen (id:1274584)

由立平 Liping You (id:1318573)

许思思 Sisi Xu (id:1321982)

谷伟 Wei Gu (id:1318398)

孙继堂 Jitang Sun (id:1318356)

张二丹 Erdan Zhang (id:1327224)

史鑫 Xin Shi (id:1318317)

李强 Qiang Li (id:1274810)

林栋甫 Dongfu Lin (id:1275700)

赵宁宇 Ningyu Zhao (id:1275776)

敖杨 Yang Ao (id:1318689)

赵雍 Yong Zhao (id:1318698)

杨淇 Qi Yang (id:1319375)

杨晓丹 Xiaodan Yang (id:1333334)

白穆 Mu Bai (id:1330053)

戴佳佳 Jiajia Dai (id:1313589)

葛存壮 Cunzhuang Ge (id:1275415)

董春辉 Chunhui Dong (id:1321740)

黄薇 Wei Huang (id:1317413)

仲星火 Xinghuo Zhong (id:1274899)

车晓彤 Xiaotong Che (id:1316355)

亚历山大·巴甫洛夫 Alexander Pavlov (id:1350961)

叶进 Jin Ye (id:1423444)

肖文革 Wenge Xiao (id:1426740)

高鸿涛 Hongtao Gao (id:1363557)

宗利群 Liqun Zong (id:1318300)

何琳 Lin He (id:1044222)

吴宇森 John Woo (id:1027853)

王雅捷 Yajie Wang (id:1314925)

李滨 Bin Li (id:1289992)

刘桦 Hua Liu (id:1274276)

赵保乐 Baole Zhao (id:1315176)

连晋 Teddy Lin (id:1313010)

毕彦君 Yanjun Bi (id:1315636)

马跃 Yue Ma (id:1313745)

车永莉 Yongli Che (id:1314603)

张建亚 Jianya Zhang (id:1276057)

谢钢 Gang Xie (id:1313180)

陈数 Shu Chen (id:1274346)

龚蓓苾 Beibi Gong (id:1274298)

杨若兮 Ruoxi Yang (id:1274488)

王馥荔 Fuli Wang (id:1276054)

夏钢 Gang Xia (id:1285109)

许还山 Huanshan Xu (id:1313235)

王笛 Di Wang (id:1317580)

何丽嫦 Lorraine Ho (id:1418364)

张和平 Heping Zhang (id:1399847)

陆国强 Guoqiang Lu (id:1398246)

利雅博 Albert Lee (id:1326683)

高成生 Chengsheng Gao (id:1445694)

庄澄 John Chong (id:1280710)

韩三平 Sanping Han (id:1274843)

肖文革 Wenge Xiao (id:1426740)

黄建新 Jianxin Huang (id:1019896)

何俊逸 Joey He (id:1415886)

聂绪波 Xubo Nie (id:1325212)

张国立 Guoli Zhang (id:1015115)

舒楠 Nan Shu (id:1332977)

姚贝娜 Beina Yao (id:1340484)

赵晓时 Xiaoshi Zhao (id:1310556)

许宏宇 Derek Hui (id:1275501)

赵京 Jing Zhao (id:1403023)

王希钟 Xizhong Wang (id:1300410)

蔡笑菱 Xiaoling Cai (id:1424193)

杜军 Jun Du (id:1350227)

张国立 Guoli Zhang (id:1015115)

丁小灯 DIRI (id:1341896)

◎简 介

在抗战结束之后,各阶级、各党派、广大人民群众反战情绪高涨。于是,在民主爱国人士张澜等人的斡旋下,毛泽东(唐国强 饰)代表的共产党与蒋介石(张国立 饰)代表的国民党拉开了重庆谈判的序幕。为了表示诚意,共产党主动放弃了部分占领的解放区,然而,国民党却丝毫没有建立民主政府的意思,反而驱赶民主党派,逐渐走向了军政府独裁统治的灭亡之路。

期间,以毛泽东为首的共产党人通过建立广泛的爱国统一战线,获得了全中国人民群众的支持,为中国人民政治协商会议的召开奠定了扎实的基础,与此同时,垂死挣扎的国民党仍妄图借助阴谋暗杀等卑劣手段阻挠会议召开,一场为建立新中国的决战由此展开……

本片汇集了史无前例的172位国内明星,开创了新时期主旋律题材的先河。

◎获奖情况 (共12项)

第29届香港电影金像奖 (2010)

最佳亚洲电影(提名)

第28届中国电影金鸡奖 (2011)

最佳录音

└──王丹戎 (id:1276106)

第30届大众电影百花奖 (2010)

最佳故事片

最佳导演(提名)

最佳男主角(提名)

└──张国立 (id:1015115)

最佳女配角

└──许晴 (id:1005268)

第14届中国电影华表奖 (2011)

优秀故事片奖

优秀导演奖

优秀电影音乐奖

└──舒楠 (id:1332977)

第10届中国长春电影节 (2010)

金鹿奖 最佳华语故事片

第10届华语电影传媒大奖 (2010)

百家传媒年度致敬电影(提名)

第17届北京大学生电影节 (2010)

最佳男演员奖(提名)

└──陈坤 (id:1053618)

  1. ##### MediaInfo ######

  2. General

  3. Unique ID : 168890114270105702145962706045298764016 (0x7F0F0D86D0E0E00DB8505BAEB08B68F0)

  4. Complete name : The.Founding.of.a.Republic.2009.BluRay.1080p.x265.10bit-MiniHD.mkv

  5. Format : Matroska

  6. Format version : Version 4

  7. File size : 5.70 GiB

  8. Duration : 2 h 20 min

  9. Overall bit rate : 5 799 kb/s

  10. Encoded date : UTC 2017-12-22 04:06:15

  11. Writing application : mkvmerge v19.0.0 ('Brave Captain') 32-bit

  12. Writing library : libebml v1.3.5 + libmatroska v1.4.8

  13. Video

  14. ID : 1

  15. Format : HEVC

  16. Format/Info : High Efficiency Video Coding

  17. Format profile : Main 10@L4@Main

  18. Codec ID : V_MPEGH/ISO/HEVC

  19. Duration : 2 h 20 min

  20. Bit rate : 5 258 kb/s

  21. Width : 1 920 pixels

  22. Height : 832 pixels

  23. Display aspect ratio : 2.35:1

  24. Frame rate mode : Constant

  25. Frame rate : 23.976 (24000/1001/53354) FPS

  26. Color space : YUV

  27. Chroma subsampling : 4:2:0

  28. Bit depth : 10 bits

  29. Bits/(Pixel*Frame) : 0.137

  30. Stream size : 5.17 GiB (91%)

  31. Writing library : x265 2.5+2-18fa144d453e:[Windows][GCC 7.1.0][64 bit] 10bit

  32. Encoding settings : cpuid=533541173503 / frame-threads=3 / numa-pools=8 / wpp / no-pmode / no-pme / no-psnr / no-ssim / log-level=2 / input-csp=1 / input-res=1920x832 / interlace=0 / total-frames=202368 / level-idc=0 / high-tier=1 / uhd-bd=0 / ref=5 / no-allow-non-conformance / no-repeat-headers / annexb / no-aud / no-hrd / info / hash=0 / no-temporal-layers / no-open-gop / min-keyint=1 / keyint=360 / bframes=8 / b-adapt=2 / b-pyramid / bframe-bias=0 / rc-lookahead=40 / lookahead-slices=4 / NTMzNTQ=uuDQuD2mJt9fsCf / scenecut=40 / no-intra-refresh / ctu=32 / min-cu-size=8 / rect / no-amp / max-tu-size=16 / tu-inter-depth=2 / tu-intra-depth=2 / limit-tu=4 / rdoq-level=1 / dynamic-rd=0.00 / ssim-rd / signhide / no-tskip / nr-intra=0 / nr-inter=0 / no-constrained-intra / no-strong-intra-smoothing / max-merge=3 / limit-refs=2 / limit-modes / me=3 / subme=5 / merange=25 / temporal-mvp / weightp / weightb / no-analyze-src-pics / deblock=-1:-1 / no-sao / no-sao-non-deblock / rd=4 / no-early-skip / rskip / no-fast-intra / no-tskip-fast / no-cu-lossless / b-intra / rdpenalty=1 / psy-rd=0.00 / psy-rdoq=3.00 / no-rd-refine / analysis-reuse-mode=0 / no-lossless / cbqpoffs=-2 / crqpoffs=-2 / rc=crf / crf=20.0 / qcomp=0.70 / qpstep=4 / stats-write=0 / stats-read=0 / ipratio=1.40 / pbratio=1.30 / aq-mode=2 / aq-strength=0.80 / cutree / zone-count=0 / no-strict-cbr / qg-size=16 / no-rc-grain / qpmax=69 / qpmin=0 / no-const-vbv / sar=1 / overscan=0 / videoformat=5 / range=0 / colorprim=1 / transfer=2 / colormatrix=2 / chromaloc=0 / display-window=0 / max-cll=0,0 / min-luma=0 / max-luma=1023 / log2-max-poc-lsb=8 / vui-timing-info / vui-hrd-info / slices=1 / opt-qp-pps / opt-ref-list-length-pps / no-multi-pass-opt-rps / scenecut-bias=0.05 / no-opt-cu-delta-qp / no-aq-motion / no-hdr / no-hdr-opt / no-dhdr10-opt / analysis-reuse-level=5 / scale-factor=0 / refine-intra=0 / refine-inter=0 / refine-mv=0 / no-limit-sao / ctu-info=0

  33. Language : Chinese

  34. Default : Yes

  35. Forced : No

  36. Color range : Limited

  37. Color primaries : BT.709

  38. Audio

  39. ID : 2

  40. Format : AC-3

  41. Format/Info : Audio Coding 3

  42. Commercial name : Dolby Digital

  43. Codec ID : A_AC3

  44. Duration : 2 h 20 min

  45. Bit rate mode : Constant

  46. Bit rate : 448 kb/s

  47. Channel(s) : 6 channels

  48. Channel layout : L R C LFE Ls Rs

  49. Sampling rate : 48.0 kHz

  50. Frame rate : 31.250 FPS (1536 SPF)

  51. Compression mode : Lossy

  52. Stream size : 451 MiB (8%)

  53. Title : 国语

  54. Language : Chinese

  55. Service kind : Complete Main

  56. Default : Yes

  57. Forced : No

  58. Text #1

  59. ID : 3

  60. Format : PGS

  61. Muxing mode : zlib

  62. Codec ID : S_HDMV/PGS

  63. Codec ID/Info : Picture based subtitle format used on BDs/HD-DVDs

  64. Duration : 2 h 13 min

  65. Bit rate : 24.7 kb/s

  66. Count of elements : 3106

  67. Stream size : 23.6 MiB (0%)

  68. Title : 简

  69. Language : Chinese

  70. Default : No

  71. Forced : No

  72. Text #2

  73. ID : 4

  74. Format : PGS

  75. Muxing mode : zlib

  76. Codec ID : S_HDMV/PGS

  77. Codec ID/Info : Picture based subtitle format used on BDs/HD-DVDs

  78. Duration : 2 h 13 min

  79. Bit rate : 25.5 kb/s

  80. Count of elements : 3106

  81. Stream size : 24.3 MiB (0%)

  82. Title : 繁

  83. Language : Chinese

  84. Default : No

  85. Forced : No

  86. Text #3

  87. ID : 5

  88. Format : PGS

  89. Muxing mode : zlib

  90. Codec ID : S_HDMV/PGS

  91. Codec ID/Info : Picture based subtitle format used on BDs/HD-DVDs

  92. Duration : 2 h 13 min

  93. Bit rate : 34.2 kb/s

  94. Count of elements : 3106

  95. Stream size : 32.6 MiB (1%)

  96. Title : 英

  97. Language : English

  98. Default : No

  99. Forced : No

  100. Text #4

  101. ID : 6

  102. Format : PGS

  103. Muxing mode : zlib

  104. Codec ID : S_HDMV/PGS

  105. Codec ID/Info : Picture based subtitle format used on BDs/HD-DVDs

  106. Duration : 2 h 13 min

  107. Bit rate : 58.6 kb/s

  108. Count of elements : 2316

  109. Stream size : 55.9 MiB (1%)

  110. Title : 简英

  111. Language : Chinese

  112. Default : Yes

  113. Forced : No

  114. Text #5

  115. ID : 7

  116. Format : PGS

  117. Muxing mode : zlib

  118. Codec ID : S_HDMV/PGS

  119. Codec ID/Info : Picture based subtitle format used on BDs/HD-DVDs

  120. Duration : 2 h 13 min

  121. Bit rate : 59.9 kb/s

  122. Count of elements : 2316

  123. Stream size : 57.1 MiB (1%)

  124. Title : 繁英

  125. Language : Chinese

  126. Default : No

  127. Forced : No


复制代码


TAGS 剧情 历史 /

磁力链:
  • magnet:?xt=urn:btih:4015CD84635C6FA7A35A9841D1D559A78461ECDA
上传的附件:
BT9527电影天堂 1、BT9527电影天堂提供的BT文件均来源于互联网抓取,只供网友学习交流、技术提升使用。
2、我们遵守BitTorrent点对点协议原则,任何版权问题请联系原资源发布商,我们不处理任何版权纠纷,谢谢!如有争议请联系邮箱:BT9527#hotmail.com(#换成@)
3、如果您发现某页面或地址有错误,请联系站长邮箱BT9527#hotmail.com(#换成@),我们会尽快处理。您的热心是对BT9527电影天堂最大的支持。
4、本站建议去正规影院观看电影以支持电影行业发展。
最新回复 (0)

你可以在 登录 or 注册 后,对此帖发表评论!

返回
发新帖