幸福终点站[国英多音轨/中英字幕].The.Terminal.2004.BluRay.1080p.x265.10bit.2Audio-MiniHD 12.49GB

版主小s 28天前 97

◎译 名 幸福终点站 / 机场客运站(港) / 航站情缘(台) / 航站奇缘 / 单程机票航站奇缘 / 候机楼 / 单程机票 / 爱你无国界

◎片 名 The Terminal

◎年 代 2004

◎产 地 美国

◎类 别 剧情 / 喜剧 / 爱情

◎语 言 英语 / 保加利亚语 / 西班牙语 / 俄语 / 汉语普通话 / 德语 / 法语

◎上映日期 2005-01-14(中国大陆) / 2004-06-18(美国)

◎IMDb链接 https://www.imdb.com/title/tt0362227/

◎豆瓣评分 8.8/10 (513052人评价)

◎豆瓣链接 https://movie.douban.com/subject/1292274/

◎片 长 128分钟

◎导 演 史蒂文·斯皮尔伯格 Steven Spielberg (id:1054440)

◎编 剧 安德鲁·尼科尔 Andrew Niccol (id:1018008)

萨沙·杰瓦西 Sacha Gervasi (id:1284761)

杰夫·内桑森 Jeff Nathanson (id:1292932)

◎演 员 汤姆·汉克斯 Tom Hanks (id:1054450)

凯瑟琳·泽塔-琼斯 Catherine Zeta-Jones (id:1056058)

斯坦利·图齐 Stanley Tucci (id:1040517)

齐·麦克布赖德 Chi McBride (id:1116510)

迭戈·卢纳 Diego Luna (id:1013867)

巴里·沙巴卡·亨利 Barry Shabaka Henley (id:1092804)

库玛·帕拉纳 Kumar Pallana (id:1014276)

佐伊·索尔达娜 Zoe Saldana (id:1047985)

埃迪·琼斯 Eddie Jones (id:1337120)

祖德·塞克利拉 Jude Ciccolella (id:1315528)

科瑞·雷诺兹 Corey Reynolds (id:1313614)

古列雷莫·迪亚兹 Guillermo Díaz (id:1319147)

里尼·贝尔 Rini Bell (id:1062019)

瓦列里·尼古拉耶夫 Valeriy Nikolaev (id:1129032)

迈克尔·诺里 Michael Nouri (id:1036528)

鲍勃·莫里西 Bob Morrisey (id:1132814)

萨沙·斯皮尔伯格 Sasha Spielberg (id:1155960)

苏珊·索洛米 Susan Slome (id:1166671)

卡尔利斯·布克 Carlease Burke (id:1331712)

斯蒂芬·富勒 Stephon Fuller (id:1081837)

丹·芬纳蒂 Dan Finnerty (id:1359743)

Lydia Blanco Lydia Blanco (id:1061796)

肯尼斯·崔 Kenneth Choi (id:1027505)

卡斯·安瓦尔 Cas Anvar (id:1323602)

康拉德·皮拉 Conrad Pla (id:1208157)

杜桑恩·杜基齐 Dusan Dukic (id:1322852)

马克·伊瓦涅 Mark Ivanir (id:1105743)

Benny Golson Benny Golson (id:1005936)

斯科特·安第斯 Scott Adsit (id:1058140)

罗伯特·科瓦吕比亚 Robert Covarrubias (id:1074663)

Dilva Henry Dilva Henry (id:1101378)

卡尔艾拉切 Carl Alacchi (id:1365115)

哈亚提·阿克巴斯 Hayati Akbas (id:1220956)

艾力克斯·伯恩斯 Alex E. Burns (id:1010318)

埃莱娜·卡多纳 Hélène Cardona (id:1344847)

Dan Chase Dan Chase (id:1194503)

查得·R·戴维斯 Chad R. Davis (id:1223300)

Antonella Elia Antonella Elia (id:1089255)

Michael Eliopoulos Michael Eliopoulos (id:1085444)

Marston Fobbs Marston Fobbs (id:1241776)

Riad Galayini Riad Galayini (id:1284416)

杰拉德·加纳 Jerald Garner (id:1201628)

贾斯汀·罗杰斯豪尔 Justin Rodgers Hall (id:1236059)

Mohammed Hassan Mohammed Hassan (id:1033778)

Amber Havens (id:1222747)

Ksenia Jarova Ksenia Jarova (id:1187371)

巴里·朱利安 Barry Julien (id:1028798)

Svilena Kidess Svilena Kidess (id:1169262)

Zuzana Monroe (id:1249185)

艾丽西亚·奥奇瑟 Alyshia Ochse (id:1357960)

本杰明·奥切恩格 Benjamin Ochieng (id:1339456)

梅尔·罗德里格斯 Mel Rodriguez (id:1348244)

阿尼·萨瓦 Ani Sava (id:1404567)

史蒂文·斯皮尔伯格 Steven Spielberg (id:1054440)

塞尔吉奥·米米卡-戈赞 Sergio Mimica-Gezzan (id:1292148)

劳里·麦克唐纳 Laurie MacDonald (id:1290620)

约翰·威廉姆斯 John Williams (id:1054692)

雅努什·卡明斯基 Janusz Kaminski (id:1009475)

黛布拉·赞恩 Debra Zane (id:1301623)

布拉德·里奇 Brad Ricker (id:1295625)

克里斯托弗·布里安-莫尔 Christopher Burian-Mohr (id:1279638)

安妮·库尔贾安 Anne Kuljian (id:1289096)

阿莱克斯·麦克唐维尔 Alex McDowell (id:1291544)

克里斯蒂娜·瓦达 Christine Wada (id:1465734)

Katalin Elek Katalin Elek (id:1283086)

Cindy J. Williams Cindy J. Williams (id:1300951)

金伯利·斯皮特里 Kimberley Spiteri (id:1298179)

金·桑坦托尼奥 Kim Santantonio (id:1296669)

Thomas Real Thomas Real (id:1295323)

保罗·勒布朗 Paul LeBlanc (id:1289615)

爱德华·F.·恩里克斯 Edouard F. Henriques (id:1286452)

格雷格·方克 Greg Funk (id:1284333)

佐尔坦·埃雷克 Zoltan Elek (id:1283102)

塞尔吉奥·米米卡-戈赞 Sergio Mimica-Gezzan (id:1292148)

罗伯特·斯特罗姆伯格 Robert Stromberg (id:1298560)

汤米·陈 Tommy Tran (id:1299471)

大卫·埃布纳 David Ebner (id:1302384)

David Alexander David Alexander (id:1302497)

Ken Locsmandi Ken Locsmandi (id:1303583)

查尔斯·吉布森 Charles Gibson (id:1276261)

Leif Einarsson Leif Einarsson (id:1303968)

Paul Graff Paul Graff (id:1306925)

朱纹希 ShellZee Zhu (id:1370172)

◎简 介

为了完成父亲的心愿,维克多(汤姆?汉克斯 Tom Hanks 饰)从故国乘坐飞机前往美国肯尼迪机场,但戏剧性的事情发生了:他被告知祖国发生政变,而他的身份证护照一一失效,同时他的签证也无法再使用。进退两难的维克多只有在机场滞留,等待新证件的办理。

但是,他在机场等待了整整9个月。在这9个月里面,他用机场的洗手间洗漱,在候机室睡觉,他已经学懂因地制宜,在机场照料自己的生活,甚至还找了一份建筑工地工作。然而维克多的邋遢晦气却招来了机场负责人弗兰克(史坦利?图齐 Stanley Tucci 饰)的不满,而恐怕更令他气愤妒忌的是,美丽的空姐艾米利亚(凯瑟琳?泽塔-琼斯 Catherine Zeta-Jones 饰)竟然爱上了维克多。处在甜蜜中的维克多,也在慢慢观察机场的人生百态,自得其乐。

  1. ##### MediaInfo ######

  2. General

  3. Unique ID : 208403421171920302158015083329141962795 (0x9CC909F7A11FA6F698664725FC01782B)

  4. Complete name : The.Terminal.2004.BluRay.1080p.x265.10bit.2Audio-MiniHD.mkv

  5. Format : Matroska

  6. Format version : Version 4

  7. File size : 12.5 GiB

  8. Duration : 2 h 8 min

  9. Overall bit rate : 13.9 Mb/s

  10. Encoded date : UTC 2017-04-24 07:13:56

  11. Writing application : mkvmerge v9.7.1 ('Pandemonium') 64bit

  12. Writing library : libebml v1.3.4 + libmatroska v1.4.5

  13. Video

  14. ID : 1

  15. Format : HEVC

  16. Format/Info : High Efficiency Video Coding

  17. Format profile : Main 10@L4@Main

  18. Codec ID : V_MPEGH/ISO/HEVC

  19. Duration : 2 h 8 min

  20. Bit rate : 13.0 Mb/s

  21. Width : 1 920 pixels

  22. Height : 1 038 pixels

  23. Display aspect ratio : 1.85:1

  24. Frame rate mode : Constant

  25. Frame rate : 23.976 (24000/1001/53354) FPS

  26. Color space : YUV

  27. Chroma subsampling : 4:2:0

  28. Bit depth : 10 bits

  29. Bits/(Pixel*Frame) : 0.272

  30. Stream size : 11.7 GiB (94%)

  31. Writing library : x265 2.3+32-1ed218717877:[Windows][GCC 6.3.0][64 bit] 10bit

  32. Encoding settings : cpuid=533541173503 / frame-threads=6 / numa-pools=36 / wpp / no-pmode / no-pme / no-psnr / no-ssim / log-level=2 / input-csp=1 / input-res=1920x1038 / interlace=0 / total-frames=185236 / level-idc=0 / high-tier=1 / uhd-bd=0 / ref=5 / no-allow-non-conformance / no-repeat-headers / annexb / no-aud / no-hrd / info / hash=0 / no-temporal-layers / no-open-gop / min-keyint=1 / keyint=360 / bframes=8 / b-adapt=2 / b-pyramid / bframe-bias=0 / rc-lookahead=60 / lookahead-slices=4 / NTMzNTQ=uuDQuD2mJt9fsCf / scenecut=40 / no-intra-refresh / ctu=32 / min-cu-size=8 / rect / no-amp / max-tu-size=16 / tu-inter-depth=2 / tu-intra-depth=2 / limit-tu=4 / rdoq-level=2 / dynamic-rd=0.00 / ssim-rd / signhide / no-tskip / nr-intra=0 / nr-inter=0 / no-constrained-intra / no-strong-intra-smoothing / max-merge=3 / limit-refs=1 / limit-modes / me=3 / subme=5 / merange=25 / temporal-mvp / weightp / weightb / no-analyze-src-pics / deblock=-1:-1 / no-sao / no-sao-non-deblock / rd=4 / no-early-skip / rskip / no-fast-intra / no-tskip-fast / no-cu-lossless / b-intra / rdpenalty=1 / psy-rd=0.00 / psy-rdoq=5.00 / no-rd-refine / analysis-mode=0 / no-lossless / cbqpoffs=-2 / crqpoffs=-2 / rc=crf / crf=21.0 / qcomp=0.65 / qpstep=4 / stats-write=0 / stats-read=0 / ipratio=1.40 / pbratio=1.30 / aq-mode=2 / aq-strength=0.80 / cutree / zone-count=0 / no-strict-cbr / qg-size=16 / no-rc-grain / qpmax=69 / qpmin=0 / sar=0 / overscan=0 / videoformat=5 / range=0 / colorprim=1 / transfer=2 / colormatrix=2 / chromaloc=0 / display-window=0 / max-cll=0,0 / min-luma=0 / max-luma=1023 / log2-max-poc-lsb=8 / vui-timing-info / vui-hrd-info / slices=1 / opt-qp-pps / opt-ref-list-length-pps / no-multi-pass-opt-rps / scenecut-bias=0.05 / no-opt-cu-delta-qp / no-aq-motion / no-hdr / no-hdr-opt / refine-level=5 / no-limit-sao

  33. Default : Yes

  34. Forced : No

  35. Color range : Limited

  36. Color primaries : BT.709

  37. Audio #1

  38. ID : 2

  39. Format : AC-3

  40. Format/Info : Audio Coding 3

  41. Commercial name : Dolby Digital

  42. Codec ID : A_AC3

  43. Duration : 2 h 8 min

  44. Bit rate mode : Constant

  45. Bit rate : 640 kb/s

  46. Channel(s) : 6 channels

  47. Channel layout : L R C LFE Ls Rs

  48. Sampling rate : 48.0 kHz

  49. Frame rate : 31.250 FPS (1536 SPF)

  50. Compression mode : Lossy

  51. Stream size : 589 MiB (5%)

  52. Language : English

  53. Service kind : Complete Main

  54. Default : Yes

  55. Forced : No

  56. Audio #2

  57. ID : 3

  58. Format : AC-3

  59. Format/Info : Audio Coding 3

  60. Commercial name : Dolby Digital

  61. Codec ID : A_AC3

  62. Duration : 2 h 8 min

  63. Bit rate mode : Constant

  64. Bit rate : 192 kb/s

  65. Channel(s) : 2 channels

  66. Channel layout : L R

  67. Sampling rate : 48.0 kHz

  68. Frame rate : 31.250 FPS (1536 SPF)

  69. Compression mode : Lossy

  70. Stream size : 177 MiB (1%)

  71. Language : Chinese

  72. Service kind : Complete Main

  73. Default : No

  74. Forced : No

  75. Text #1

  76. ID : 4

  77. Format : PGS

  78. Muxing mode : zlib

  79. Codec ID : S_HDMV/PGS

  80. Codec ID/Info : Picture based subtitle format used on BDs/HD-DVDs

  81. Duration : 2 h 0 min

  82. Bit rate : 9 870 b/s

  83. Count of elements : 2686

  84. Stream size : 8.49 MiB (0%)

  85. Language : English

  86. Default : Yes

  87. Forced : No

  88. Text #2

  89. ID : 5

  90. Format : PGS

  91. Muxing mode : zlib

  92. Codec ID : S_HDMV/PGS

  93. Codec ID/Info : Picture based subtitle format used on BDs/HD-DVDs

  94. Duration : 2 h 0 min

  95. Bit rate : 18.8 kb/s

  96. Count of elements : 3682

  97. Stream size : 16.2 MiB (0%)

  98. Language : Chinese

  99. Default : No

  100. Forced : No

  101. Text #3

  102. ID : 6

  103. Format : PGS

  104. Muxing mode : zlib

  105. Codec ID : S_HDMV/PGS

  106. Codec ID/Info : Picture based subtitle format used on BDs/HD-DVDs

  107. Duration : 2 h 0 min

  108. Bit rate : 19.6 kb/s

  109. Count of elements : 3682

  110. Stream size : 16.9 MiB (0%)

  111. Language : Chinese

  112. Default : No

  113. Forced : No

  114. Text #4

  115. ID : 7

  116. Format : PGS

  117. Muxing mode : zlib

  118. Codec ID : S_HDMV/PGS

  119. Codec ID/Info : Picture based subtitle format used on BDs/HD-DVDs

  120. Duration : 2 h 8 min

  121. Bit rate : 10.4 kb/s

  122. Count of elements : 2678

  123. Stream size : 9.50 MiB (0%)

  124. Language : Chinese

  125. Default : No

  126. Forced : No

  127. Menu

  128. 00:00:00.000 : en:Chapter 01

  129. 00:03:15.069 : en:Chapter 02

  130. 00:08:59.288 : en:Chapter 03

  131. 00:14:02.049 : en:Chapter 04

  132. 00:15:27.259 : en:Chapter 05

  133. 00:18:34.446 : en:Chapter 06

  134. 00:20:25.641 : en:Chapter 07

  135. 00:23:04.257 : en:Chapter 08

  136. 00:27:40.325 : en:Chapter 09

  137. 00:29:41.863 : en:Chapter 10

  138. 00:32:28.571 : en:Chapter 11

  139. 00:35:06.187 : en:Chapter 12

  140. 00:41:22.146 : en:Chapter 13

  141. 00:47:21.296 : en:Chapter 14

  142. 00:52:10.168 : en:Chapter 15

  143. 00:57:34.075 : en:Chapter 16

  144. 01:00:36.341 : en:Chapter 17

  145. 01:05:59.997 : en:Chapter 18

  146. 01:16:04.560 : en:Chapter 19

  147. 01:18:18.652 : en:Chapter 20

  148. 01:29:05.673 : en:Chapter 21

  149. 01:32:53.859 : en:Chapter 22

  150. 01:35:16.001 : en:Chapter 23

  151. 01:42:00.114 : en:Chapter 24

  152. 01:48:59.491 : en:Chapter 25

  153. 01:51:01.071 : en:Chapter 26

  154. 01:57:51.939 : en:Chapter 27

  155. 02:01:33.703 : en:Chapter 28


复制代码


TAGS 剧情 喜剧 爱情 /

磁力链:
  • magnet:?xt=urn:btih:517536F42D6912919F25543B7E4386DB1EA97F9A
上传的附件:
BT9527电影天堂 1、BT9527电影天堂提供的BT文件均来源于互联网抓取,只供网友学习交流、技术提升使用。
2、我们遵守BitTorrent点对点协议原则,任何版权问题请联系原资源发布商,我们不处理任何版权纠纷,谢谢!如有争议请联系邮箱:BT9527#hotmail.com(#换成@)
3、如果您发现某页面或地址有错误,请联系站长邮箱BT9527#hotmail.com(#换成@),我们会尽快处理。您的热心是对BT9527电影天堂最大的支持。
4、本站建议去正规影院观看电影以支持电影行业发展。
最新回复 (0)

你可以在 登录 or 注册 后,对此帖发表评论!

返回
发新帖