师父[国语音轨/中英字幕].The.Final.Master.2015.BluRay.1080p.x265.10bit-MiniHD 5.40GB

版主小s 3月前 291

◎译 名 师父 / 师傅 / The Final Master / The Master

◎年 代 2015

◎产 地 中国大陆

◎类 别 剧情 / 动作 / 武侠

◎语 言 汉语普通话

◎上映日期 2015-12-10(中国大陆) / 2015-11-11(台北金马影展)

◎IMDb链接 https://www.imdb.com/title/tt4851640/

◎豆瓣评分 8.2/10 (303400人评价)

◎豆瓣链接 https://movie.douban.com/subject/25919910/

◎片 长 109分钟

◎导 演 徐浩峰 Haofeng Xu (id:1316577)

◎编 剧 徐浩峰 Haofeng Xu (id:1316577)

◎演 员 廖凡 Fan Liao (id:1007401)

宋佳 Jia Song (id:1042341)

蒋雯丽 Wenli Jiang (id:1020487)

金士杰 Shih-Chieh King (id:1275482)

宋洋 Yang Song (id:1316200)

黄觉 Jue Huang (id:1275273)

麦迪娜 Vicky (id:1317420)

张傲月 Aoyue Zhang (id:1353125)

马君 Jun Ma (id:1353204)

陈观泰 Kuan Tai Chen (id:1028360)

熊欣欣 Xinxin Xiong (id:1033090)

戴立忍 Leon Dai (id:1023718)

裘继戎 Jirong Qiu (id:1353419)

李博 Bo Li (id:1354161)

邹家豪 Jiahao Zou (id:1418462)

卡丽娜 Karina (id:1418460)

赵贵祥 Guixiang Zhao (id:1418463)

李春遂 Chunsui Li (id:1418464)

张蒙生 Mengsheng Zhang (id:1418465)

彭志 Zhi Peng (id:1418466)

刘洪林 Honglin Liu (id:1418480)

王宝山 Baoshan Wang (id:1418467)

刘子威 Ziwei Liu (id:1358467)

陈韦然 Weiran Chen (id:1418468)

赵峥 Zheng Zhao (id:1274909)

李桂生 Guisheng Li (id:1370903)

薄冰 Bing Bo (id:1374371)

谢勇 Yong Xie (id:1418469)

尚言生 Yansheng Shang (id:1363555)

杨晓波 Xiaobo Yang (id:1347906)

刘妙 Miao Liu (id:1329161)

艾琳 Lin Ai (id:1418470)

刘新义 Xinyi Liu (id:1418471)

安东·夏波瓦洛 Anton Shapovalov (id:1350306)

李一明 Yiming Li (id:1392486)

李光复 Guangfu Li (id:1313513)

闫长海 Changhai Yan (id:1418472)

杜月 Yue Du (id:1418473)

高肖雅 Xiaoya Gao (id:1418474)

鲁冠廷 Guanting Lu (id:1328114)

柳青伶 Qingling Liu (id:1408292)

崔陆萌 Lumeng Cui (id:1349292)

王星凯 Xingkai Wang (id:1418475)

冯启龙 Qilong Feng (id:1418476)

任思扬 Siyang Ren (id:1348115)

秦伯坤 Bokun Qin (id:1387711)

赵英龙 Yinglong Zhao (id:1329234)

徐悦 Yue Xu (id:1336968)

陈大成 Dacheng Chen (id:1357662)

达伦·格罗夫纳 Darren Grosvenor (id:1351374)

乔鸣麟 Minglin Qiao (id:1362844)

胡晓峰 Xiaofeng Hu (id:1385113)

张黎 Li Zhang (id:1301692)

左懿 Amelia Yi Zuo (id:1454256)

杨东 Dong Yang (id:1403121)

王天麟 Tianlin Wang (id:1351209)

徐浩峰 Haofeng Xu (id:1316577)

张剑 Amber Zhang (id:1408609)

崔陆萌 Lumeng Cui (id:1349292)

马大明 Daming Ma (id:1379310)

白晓峰 Xiaofeng Bai (id:1397482)

徐浩峰 Haofeng Xu (id:1316577)

◎简 介

民国年间南派咏春传人陈识(廖凡 饰)来到天津,结识了天津武术泰斗郑山傲(金士杰 饰),为在武术界开馆立足,郑山傲建议陈识用教徒弟踢馆的传统方式达成目的。几经周折,陈识娶了一名天津绝色女子赵国卉(宋佳 饰)为妻,还收下了本地青年耿良辰(宋洋 饰)为徒代其踢馆,夫妻二人暂居 在贫民窟,防被踢馆的仇家前来寻仇。陈识与妻子原本看不上好斗好色的耿良辰,但接触后也发觉了耿良辰的可取之处。但随着第八家武馆邹馆长(蒋雯丽 饰)和军界人士林希文(黄觉 饰)的介入,天津武术界面临着一场巨变,靠武术复兴家业的愿望、对妻子的爱意,以及作为师父的责任,让陈识陷入了两难之境。

◎获奖情况 (共24项)

第52届台北金马影展 (2015)

金马奖 最佳女配角(提名)

└──蒋雯丽 (id:1020487)

金马奖 最佳改编剧本(提名)

└──徐浩峰 (id:1316577)

金马奖 最佳动作设计

└──徐浩峰 (id:1316577)

第31届中国电影金鸡奖 (2017)

最佳男主角(提名)

└──廖凡 (id:1007401)

最佳女配角(提名)

└──蒋雯丽 (id:1020487)

第6届北京国际电影节 (2016)

天坛奖 最佳影片奖(提名)

└──徐浩峰 (id:1316577)

天坛奖 最佳男配角奖

└──金士杰 (id:1275482)

第16届华语电影传媒大奖 (2016)

最佳电影(提名)

最佳导演(提名)

└──徐浩峰 (id:1316577)

最佳男主角(提名)

└──廖凡 (id:1007401)

最佳女主角(提名)

└──宋佳 (id:1042341)

最佳编剧

└──徐浩峰 (id:1316577)

第23届北京大学生电影节 (2016)

最佳影片奖

最佳编剧奖(提名)

└──徐浩峰 (id:1316577)

最佳男演员奖(提名)

└──廖凡 (id:1007401)

最佳女演员奖(提名)

└──宋佳 (id:1042341)

最佳观赏效果奖(提名)

艺术探索奖(提名)

第2届豆瓣电影年度榜单 (2015)

评分最高的华语电影(提名)

第6届豆瓣电影鑫像奖 (2016)

鑫豆单元 最佳影片(华语)(提名)

鑫豆单元 最佳导演(华语)(提名)

└──徐浩峰 (id:1316577)

鑫豆单元 最佳男演员(华语)(提名)

└──廖凡 (id:1007401)

鑫豆单元 最佳女演员(华语)(提名)

└──宋佳 (id:1042341)

鑫豆单元 最佳科幻/动作片(提名)

  1. ##### MediaInfo ######

  2. General

  3. Unique ID : 171427662247509178940746394543837562491 (0x80F7C44D20BC2DF88273ED7DF32A467B)

  4. Complete name : The.Final.Master.2015.BluRay.1080p.x265.10bit-MiniHD.mkv

  5. Format : Matroska

  6. Format version : Version 4

  7. File size : 5.40 GiB

  8. Duration : 1 h 49 min

  9. Overall bit rate : 7 067 kb/s

  10. Encoded date : UTC 2017-07-28 01:42:56

  11. Writing application : mkvmerge v11.0.0 ('Alive') 64bit

  12. Writing library : libebml v1.3.4 + libmatroska v1.4.5

  13. Video

  14. ID : 1

  15. Format : HEVC

  16. Format/Info : High Efficiency Video Coding

  17. Codec ID : V_MPEGH/ISO/HEVC

  18. Duration : 1 h 49 min

  19. Bit rate : 6 382 kb/s

  20. Width : 1 920 pixels

  21. Height : 804 pixels

  22. Display aspect ratio : 2.40:1

  23. Frame rate mode : Constant

  24. Frame rate : 24.000 FPS

  25. Bits/(Pixel*Frame) : 0.172

  26. Stream size : 4.88 GiB (90%)

  27. Default : Yes

  28. Forced : No

  29. Audio

  30. ID : 2

  31. Format : AC-3

  32. Format/Info : Audio Coding 3

  33. Commercial name : Dolby Digital

  34. Codec ID : A_AC3

  35. Duration : 1 h 49 min

  36. Bit rate mode : Constant

  37. Bit rate : 640 kb/s

  38. Channel(s) : 6 channels

  39. Channel layout : L R C LFE Ls Rs

  40. Sampling rate : 48.0 kHz

  41. Frame rate : 31.250 FPS (1536 SPF)

  42. Compression mode : Lossy

  43. Delay relative to video : 2 s 0 ms

  44. Stream size : 501 MiB (9%)

  45. Language : Chinese

  46. Service kind : Complete Main

  47. Default : Yes

  48. Forced : No

  49. Text #1

  50. ID : 3

  51. Format : PGS

  52. Muxing mode : zlib

  53. Codec ID : S_HDMV/PGS

  54. Codec ID/Info : Picture based subtitle format used on BDs/HD-DVDs

  55. Duration : 1 h 42 min

  56. Bit rate : 9 466 b/s

  57. Count of elements : 1792

  58. Stream size : 6.96 MiB (0%)

  59. Language : English

  60. Default : Yes

  61. Forced : No

  62. Text #2

  63. ID : 4

  64. Format : PGS

  65. Muxing mode : zlib

  66. Codec ID : S_HDMV/PGS

  67. Codec ID/Info : Picture based subtitle format used on BDs/HD-DVDs

  68. Duration : 1 h 42 min

  69. Bit rate : 8 858 b/s

  70. Count of elements : 1778

  71. Stream size : 6.52 MiB (0%)

  72. Language : Chinese

  73. Default : No

  74. Forced : No

  75. Text #3

  76. ID : 5

  77. Format : PGS

  78. Muxing mode : zlib

  79. Codec ID : S_HDMV/PGS

  80. Codec ID/Info : Picture based subtitle format used on BDs/HD-DVDs

  81. Duration : 1 h 42 min

  82. Bit rate : 9 124 b/s

  83. Count of elements : 1778

  84. Stream size : 6.71 MiB (0%)

  85. Language : Chinese

  86. Default : No

  87. Forced : No

  88. Text #4

  89. ID : 6

  90. Format : PGS

  91. Muxing mode : zlib

  92. Codec ID : S_HDMV/PGS

  93. Codec ID/Info : Picture based subtitle format used on BDs/HD-DVDs

  94. Duration : 1 h 42 min

  95. Bit rate : 8 857 b/s

  96. Count of elements : 1778

  97. Stream size : 6.52 MiB (0%)

  98. Language : Chinese

  99. Default : No

  100. Forced : No

  101. Text #5

  102. ID : 7

  103. Format : PGS

  104. Muxing mode : zlib

  105. Codec ID : S_HDMV/PGS

  106. Codec ID/Info : Picture based subtitle format used on BDs/HD-DVDs

  107. Duration : 1 h 42 min

  108. Bit rate : 9 124 b/s

  109. Count of elements : 1778

  110. Stream size : 6.71 MiB (0%)

  111. Language : Chinese

  112. Default : No

  113. Forced : No

  114. Menu

  115. 00:00:00.000 : en:Chapter 01

  116. 00:10:07.750 : en:Chapter 02

  117. 00:19:27.166 : en:Chapter 03

  118. 00:32:00.541 : en:Chapter 04

  119. 00:41:15.625 : en:Chapter 05

  120. 00:48:22.375 : en:Chapter 06

  121. 00:59:37.083 : en:Chapter 07

  122. 01:07:42.750 : en:Chapter 08

  123. 01:17:18.541 : en:Chapter 09

  124. 01:26:39.875 : en:Chapter 10

  125. 01:36:54.833 : en:Chapter 11

  126. 01:44:54.208 : en:Chapter 12


复制代码


TAGS 武侠 动作 剧情 /

磁力链:
  • magnet:?xt=urn:btih:7ECA78560F0C7B420692CE1818719721CEDF6080
上传的附件:
BT9527电影天堂 1、BT9527电影天堂提供的BT文件均来源于互联网抓取,只供网友学习交流、技术提升使用。
2、我们遵守BitTorrent点对点协议原则,任何版权问题请联系原资源发布商,我们不处理任何版权纠纷,谢谢!如有争议请联系邮箱:BT9527#hotmail.com(#换成@)
3、如果您发现某页面或地址有错误,请联系站长邮箱BT9527#hotmail.com(#换成@),我们会尽快处理。您的热心是对BT9527电影天堂最大的支持。
4、本站建议去正规影院观看电影以支持电影行业发展。
最新回复 (0)

你可以在 登录 or 注册 后,对此帖发表评论!

返回