布达佩斯大饭店[国英多音轨/简繁英特效字幕].The.Grand.Budapest.Hotel.2014.BluRay.1080p.x265.10bit.2Audio-MiniHD 3.23GB

版主小s 4月前 235

◎译 名 布达佩斯大饭店 / 布达佩斯大酒店(港) / 欢迎来到布达佩斯大饭店(台)

◎片 名 The Grand Budapest Hotel

◎年 代 2014

◎产 地 美国 / 德国 / 英国

◎类 别 剧情 / 喜剧 / 冒险

◎语 言 英语 / 法语 / 德语

◎上映日期 2014-02-06(柏林电影节) / 2014-03-28(美国)

◎IMDb链接 https://www.imdb.com/title/tt2278388/

◎豆瓣评分 8.9/10 (834411人评价)

◎豆瓣链接 https://movie.douban.com/subject/11525673/

◎片 长 99分钟

◎导 演 韦斯·安德森 Wes Anderson (id:1044872)

◎编 剧 韦斯·安德森 Wes Anderson (id:1044872)

雨果·吉尼斯 Hugo Guinness (id:1338344)

斯蒂芬·茨威格 Stefan Zweig (id:1037692)

◎演 员 拉尔夫·费因斯 Ralph Fiennes (id:1006956)

托尼·雷沃罗利 Tony Revolori (id:1204197)

艾德里安·布洛迪 Adrien Brody (id:1002665)

威廉·达福 Willem Dafoe (id:1010539)

裘德·洛 Jude Law (id:1010510)

爱德华·诺顿 Edward Norton (id:1035676)

西尔莎·罗南 Saoirse Ronan (id:1022004)

蒂尔达·斯文顿 Tilda Swinton (id:1025152)

比尔·默瑞 Bill Murray (id:1054508)

蕾雅·赛杜 Léa Seydoux (id:1009295)

欧文·威尔逊 Owen Wilson (id:1006964)

詹森·舒瓦兹曼 Jason Schwartzman (id:1009269)

马修·阿马立克 Mathieu Amalric (id:1040679)

F·默里·亚伯拉罕 F. Murray Abraham (id:1055073)

汤姆·威尔金森 Tom Wilkinson (id:1036397)

杰夫·高布伦 Jeff Goldblum (id:1025109)

哈威·凯特尔 Harvey Keitel (id:1048131)

鲍勃·巴拉班 Bob Balaban (id:1022775)

费舍·史蒂芬斯 Fisher Stevens (id:1036474)

华莱士·沃洛达斯基 Wallace Wolodarsky (id:1301167)

杰拉·尼曼 Jella Niemann (id:1442968)

瓦里丝·阿卢瓦利亚 Waris Ahluwalia (id:1327732)

戈洛·欧拉 Golo Euler (id:1352466)

吴永庆 Yongqing Wu (id:1382991)

丽萨·克鲁泽 Lisa Kreuzer (id:1108701)

野村训市 Kunichi Nomura (id:1383173)

卡尔·马克维斯 Karl Markovics (id:1050288)

弗洛里安·卢卡斯 Florian Lukas (id:1032507)

吉塞尔达·沃洛迪 Giselda Volodi (id:1300176)

拉里·派恩 Larry Pine (id:1032769)

尼尔·哈夫 Neal Huff (id:1340785)

汉勒斯·魏格纳 Hannes Wegener (id:1340775)

加布里埃尔·拉什 Gabriel Rush (id:1323850)

卢卡斯·赫奇斯 Lucas Hedges (id:1340596)

伊莱·布什 Eli Bush (id:1387571)

韦斯·安德森 Wes Anderson (id:1044872)

杰瑞米·道森 Jeremy Dawson (id:1281945)

亚历山大·德斯普拉 Alexandre Desplat (id:1049972)

罗伯特·约曼 Robert D. Yeoman (id:1032647)

吉娜·杰 Jina Jay (id:1395105)

亚当·斯托克豪森 Adam Stockhausen (id:1336735)

弗格斯·克莱格 Fergus Clegg (id:1450290)

米兰拉·坎农诺 Milena Canonero (id:1279999)

罗曼·科波拉 Roman Coppola (id:1045103)

◎简 介

故事要从一位无名作家(裘德·洛 Jude Law 饰)说起,为了专心创作,他来到了名为“布达佩斯”的饭店,在这里,作家遇见了饭店的主人穆斯塔法(F·莫里·亚伯拉罕 F. Murray Abraham 饰),穆斯塔法邀请作家共进晚餐,席间,他向作家讲述了这座饱经风雨的大饭店的前世今生。

饭店曾经的主人名叫古斯塔沃(拉尔夫·费因斯 Ralph Fiennes 饰),而年轻的穆斯塔法(托尼·雷沃罗利 Tony Revolori 饰)在当时不过是追随着他的一介小小门童。古斯塔沃为人正直,精明能干,在他的经营和组织之下,布达佩斯大饭店成为了当时首屈一指的度假胜地。古斯塔沃和年迈的D夫人(蒂尔达·斯文顿 Tilda Swinton 饰)情投意合,D夫人去世后,在遗嘱中将一副价值连城的名画留给了古斯塔沃,这一举动惹恼了她的儿子迪米特里(阿德里安·布洛迪 Adrie...

◎获奖情况 (共52项)

第87届奥斯卡金像奖 (2015)

最佳影片(提名)

最佳导演(提名)

└──韦斯·安德森 (id:1044872)

最佳原创剧本(提名)

└──韦斯·安德森 (id:1044872)

最佳摄影(提名)

└──罗伯特·约曼 (id:1032647)

最佳剪辑(提名)

└──巴尼·皮林 (id:1305648)

最佳艺术指导

最佳服装设计

└──米兰拉·坎农诺 (id:1279999)

最佳化妆与发型设计

最佳原创配乐

└──亚历山大·德斯普拉 (id:1049972)

第64届柏林国际电影节 (2014)

金熊奖 最佳影片(提名)

└──韦斯·安德森 (id:1044872)

银熊奖 评审团大奖

└──韦斯·安德森 (id:1044872)

第72届金球奖 (2015)

电影类 最佳音乐/喜剧片

电影类 最佳导演(提名)

└──韦斯·安德森 (id:1044872)

电影类 音乐/喜剧片最佳男主角(提名)

└──拉尔夫·费因斯 (id:1006956)

电影类 最佳编剧(提名)

└──韦斯·安德森 (id:1044872)

第67届美国导演工会奖 (2015)

最佳电影导演(提名)

└──韦斯·安德森 (id:1044872)

第21届美国演员工会奖 (2015)

电影奖 最佳群戏(提名)

第67届美国编剧工会奖 (2015)

电影奖 最佳原创剧本

└──韦斯·安德森 (id:1044872)

第80届纽约影评人协会奖 (2014)

最佳剧本

└──韦斯·安德森 (id:1044872)

第24届哥谭独立电影奖 (2014)

最佳影片(提名)

第18届好莱坞电影奖 (2014)

年度服装设计

└──米兰拉·坎农诺 (id:1279999)

第13届华盛顿影评人协会奖 (2014)

最佳原创剧本(提名)

└──韦斯·安德森 (id:1044872)

最佳群戏(提名)

最佳青少年表演(提名)

└──托尼·雷沃罗利 (id:1204197)

最佳摄影(提名)

└──罗伯特·约曼 (id:1032647)

最佳艺术指导

第40届洛杉矶影评人协会奖 (2014)

最佳影片(提名)

最佳导演(提名)

└──韦斯·安德森 (id:1044872)

最佳剧本

└──韦斯·安德森 (id:1044872)

最佳艺术指导

└──亚当·斯托克豪森 (id:1336735)

最佳剪辑(提名)

└──巴尼·皮林 (id:1305648)

第27届芝加哥影评人协会奖 (2014)

最佳影片(提名)

最佳导演(提名)

└──韦斯·安德森 (id:1044872)

最佳原创剧本

└──韦斯·安德森 (id:1044872)

最佳摄影(提名)

└──罗伯特·约曼 (id:1032647)

最佳剪辑(提名)

└──巴尼·皮林 (id:1305648)

最佳原创配乐(提名)

└──亚历山大·德斯普拉 (id:1049972)

最佳艺术指导

最具潜力演员(提名)

└──托尼·雷沃罗利 (id:1204197)

第18届美国在线影评人协会奖 (2014)

最佳影片

最佳导演(提名)

└──韦斯·安德森 (id:1044872)

最佳男主角(提名)

└──拉尔夫·费因斯 (id:1006956)

最佳原创剧本

└──韦斯·安德森 (id:1044872)

最佳剪辑(提名)

└──巴尼·皮林 (id:1305648)

最佳摄影

└──罗伯特·约曼 (id:1032647)

第1届豆瓣电影年度榜单 (2014)

评分最高的外语电影(提名)

最受关注的非院线电影

年度电影原声(提名)

6月最受关注电影(提名)

第5届豆瓣电影鑫像奖 (2015)

鑫豆单元 最佳影片(外语)(提名)

鑫豆单元 最佳喜剧片

鑫豆单元 最佳配乐

  1. ##### MediaInfo ######

  2. General

  3. Unique ID : 206411698159585082426517784671281810817 (0x9B497270EF1C3E5FA7E30439A68D0D81)

  4. Complete name : The.Grand.Budapest.Hotel.2014.BluRay.1080p.x265.10bit.2Audio-MiniHD.mkv

  5. Format : Matroska

  6. Format version : Version 4

  7. File size : 3.23 GiB

  8. Duration : 1 h 39 min

  9. Overall bit rate : 4 625 kb/s

  10. Encoded date : UTC 2017-10-23 08:30:20

  11. Writing application : mkvmerge v15.0.0 ('Duel with the Devil') 64-bit

  12. Writing library : libebml v1.3.5 + libmatroska v1.4.5

  13. Video

  14. ID : 1

  15. Format : HEVC

  16. Format/Info : High Efficiency Video Coding

  17. Format profile : Main 10@L4@Main

  18. Codec ID : V_MPEGH/ISO/HEVC

  19. Duration : 1 h 39 min

  20. Bit rate : 3 132 kb/s

  21. Width : 1 920 pixels

  22. Height : 1 036 pixels

  23. Display aspect ratio : 1.85:1

  24. Frame rate mode : Constant

  25. Frame rate : 23.976 (24000/1001/53354) FPS

  26. Color space : YUV

  27. Chroma subsampling : 4:2:0

  28. Bit depth : 10 bits

  29. Bits/(Pixel*Frame) : 0.066

  30. Stream size : 2.19 GiB (68%)

  31. Writing library : x265 2.1+36-d216cb9b3b47:[Windows][GCC 6.2.0][64 bit] 10bit

  32. Encoding settings : wpp / ctu=32 / min-cu-size=8 / max-tu-size=16 / tu-intra-depth=2 / tu-inter-depth=2 / me=3 / subme=5 / merange=25 / rect / no-amp / max-merge=3 / temporal-mvp / no-early-skip / rskip / rdpenalty=1 / no-tskip / no-tskip-fast / no-strong-intra-smoothing / no-lossless / no-cu-lossless / no-constrained-intra / no-fast-intra / no-open-gop / no-temporal-layers / interlace=0 / keyint=360 / min-keyint=1 / NTMzNTQ=uuDQuD2mJt9fsCf / scenecut=40 / bias-for-scenecut=0.05 / rc-lookahead=60 / lookahead-slices=4 / bframes=8 / bframe-bias=0 / b-adapt=2 / ref=5 / limit-refs=3 / limit-modes / weightp / weightb / aq-mode=3 / qg-size=16 / aq-strength=0.90 / cbqpoffs=-3 / crqpoffs=-3 / rd=4 / psy-rd=1.00 / rdoq-level=2 / psy-rdoq=5.00 / log2-max-poc-lsb=8 / limit-tu=0 / no-rd-refine / signhide / deblock=-1:-1 / no-sao / no-sao-non-deblock / b-pyramid / cutree / no-intra-refresh / rc=crf / crf=20.0 / qcomp=0.65 / qpmin=0 / qpmax=69 / qpstep=4 / ipratio=1.40 / pbratio=1.30

  33. Default : Yes

  34. Forced : No

  35. Color range : Limited

  36. Color primaries : BT.709

  37. Audio #1

  38. ID : 2

  39. Format : AC-3

  40. Format/Info : Audio Coding 3

  41. Commercial name : Dolby Digital

  42. Codec ID : A_AC3

  43. Duration : 1 h 39 min

  44. Bit rate mode : Constant

  45. Bit rate : 640 kb/s

  46. Channel(s) : 6 channels

  47. Channel layout : L R C LFE Ls Rs

  48. Sampling rate : 48.0 kHz

  49. Frame rate : 31.250 FPS (1536 SPF)

  50. Compression mode : Lossy

  51. Stream size : 457 MiB (14%)

  52. Title : 英语原声

  53. Language : English

  54. Service kind : Complete Main

  55. Default : Yes

  56. Forced : No

  57. Audio #2

  58. ID : 3

  59. Format : AC-3

  60. Format/Info : Audio Coding 3

  61. Commercial name : Dolby Digital

  62. Codec ID : A_AC3

  63. Duration : 1 h 39 min

  64. Bit rate mode : Constant

  65. Bit rate : 640 kb/s

  66. Channel(s) : 6 channels

  67. Channel layout : L R C LFE Ls Rs

  68. Sampling rate : 48.0 kHz

  69. Frame rate : 31.250 FPS (1536 SPF)

  70. Compression mode : Lossy

  71. Stream size : 457 MiB (14%)

  72. Title : 央视国配

  73. Language : Chinese

  74. Service kind : Complete Main

  75. Default : No

  76. Forced : No

  77. Text #1

  78. ID : 4

  79. Format : PGS

  80. Muxing mode : zlib

  81. Codec ID : S_HDMV/PGS

  82. Codec ID/Info : Picture based subtitle format used on BDs/HD-DVDs

  83. Duration : 1 h 33 min

  84. Bit rate : 39.3 kb/s

  85. Count of elements : 2856

  86. Stream size : 26.4 MiB (1%)

  87. Title : 英文

  88. Language : English

  89. Default : Yes

  90. Forced : No

  91. Text #2

  92. ID : 5

  93. Format : PGS

  94. Muxing mode : zlib

  95. Codec ID : S_HDMV/PGS

  96. Codec ID/Info : Picture based subtitle format used on BDs/HD-DVDs

  97. Duration : 1 h 35 min

  98. Bit rate : 51.5 kb/s

  99. Count of elements : 3743

  100. Stream size : 35.0 MiB (1%)

  101. Title : 囯配简中特效

  102. Language : Chinese

  103. Default : No

  104. Forced : No

  105. Text #3

  106. ID : 6

  107. Format : PGS

  108. Muxing mode : zlib

  109. Codec ID : S_HDMV/PGS

  110. Codec ID/Info : Picture based subtitle format used on BDs/HD-DVDs

  111. Duration : 1 h 33 min

  112. Bit rate : 51.5 kb/s

  113. Count of elements : 3222

  114. Stream size : 34.3 MiB (1%)

  115. Title : 简体中文特效

  116. Language : Chinese

  117. Default : No

  118. Forced : No

  119. Text #4

  120. ID : 7

  121. Format : PGS

  122. Muxing mode : zlib

  123. Codec ID : S_HDMV/PGS

  124. Codec ID/Info : Picture based subtitle format used on BDs/HD-DVDs

  125. Duration : 1 h 33 min

  126. Bit rate : 49.1 kb/s

  127. Count of elements : 3228

  128. Stream size : 32.7 MiB (1%)

  129. Title : 繁体中文特效

  130. Language : Chinese

  131. Default : No

  132. Forced : No

  133. Text #5

  134. ID : 8

  135. Format : PGS

  136. Muxing mode : zlib

  137. Codec ID : S_HDMV/PGS

  138. Codec ID/Info : Picture based subtitle format used on BDs/HD-DVDs

  139. Duration : 1 h 33 min

  140. Bit rate : 83.8 kb/s

  141. Count of elements : 3222

  142. Stream size : 55.7 MiB (2%)

  143. Title : 简英双语特效

  144. Language : Chinese

  145. Default : No

  146. Forced : No

  147. Text #6

  148. ID : 9

  149. Format : PGS

  150. Muxing mode : zlib

  151. Codec ID : S_HDMV/PGS

  152. Codec ID/Info : Picture based subtitle format used on BDs/HD-DVDs

  153. Duration : 1 h 33 min

  154. Bit rate : 81.3 kb/s

  155. Count of elements : 3228

  156. Stream size : 54.1 MiB (2%)

  157. Title : 繁英双语特效

  158. Language : Chinese

  159. Default : No

  160. Forced : No

  161. Text #7

  162. ID : 10

  163. Format : PGS

  164. Muxing mode : zlib

  165. Codec ID : S_HDMV/PGS

  166. Codec ID/Info : Picture based subtitle format used on BDs/HD-DVDs

  167. Duration : 1 h 39 min

  168. Bit rate : 25.9 kb/s

  169. Count of elements : 2564

  170. Stream size : 18.5 MiB (1%)

  171. Title : 简体中文

  172. Language : Chinese

  173. Default : No

  174. Forced : No

  175. Text #8

  176. ID : 11

  177. Format : PGS

  178. Muxing mode : zlib

  179. Codec ID : S_HDMV/PGS

  180. Codec ID/Info : Picture based subtitle format used on BDs/HD-DVDs

  181. Duration : 1 h 39 min

  182. Bit rate : 24.9 kb/s

  183. Count of elements : 2563

  184. Stream size : 17.8 MiB (1%)

  185. Title : 原盘繁体中文TW

  186. Language : Chinese

  187. Default : No

  188. Forced : No

  189. Text #9

  190. ID : 12

  191. Format : PGS

  192. Muxing mode : zlib

  193. Codec ID : S_HDMV/PGS

  194. Codec ID/Info : Picture based subtitle format used on BDs/HD-DVDs

  195. Duration : 1 h 39 min

  196. Bit rate : 22.0 kb/s

  197. Count of elements : 2583

  198. Stream size : 15.7 MiB (0%)

  199. Title : 原盘繁体中文HK

  200. Language : Chinese

  201. Default : No

  202. Forced : No

  203. Menu

  204. 00:00:00.000 : en:Chapter 01

  205. 00:02:55.883 : en:Chapter 02

  206. 00:06:00.150 : en:Chapter 03

  207. 00:08:28.132 : en:Chapter 04

  208. 00:11:32.607 : en:Chapter 05

  209. 00:14:17.189 : en:Chapter 06

  210. 00:17:39.599 : en:Chapter 07

  211. 00:19:56.236 : en:Chapter 08

  212. 00:23:08.803 : en:Chapter 09

  213. 00:25:35.407 : en:Chapter 10

  214. 00:29:30.310 : en:Chapter 11

  215. 00:32:11.762 : en:Chapter 12

  216. 00:34:16.262 : en:Chapter 13

  217. 00:35:51.649 : en:Chapter 14

  218. 00:38:58.043 : en:Chapter 15

  219. 00:40:18.832 : en:Chapter 16

  220. 00:41:43.792 : en:Chapter 17

  221. 00:45:22.761 : en:Chapter 18

  222. 00:48:22.649 : en:Chapter 19

  223. 00:51:53.026 : en:Chapter 20

  224. 00:55:18.273 : en:Chapter 21

  225. 00:59:08.544 : en:Chapter 22

  226. 01:04:17.019 : en:Chapter 23

  227. 01:08:34.985 : en:Chapter 24

  228. 01:12:20.460 : en:Chapter 25

  229. 01:16:18.907 : en:Chapter 26

  230. 01:17:41.488 : en:Chapter 27

  231. 01:20:47.800 : en:Chapter 28

  232. 01:24:02.370 : en:Chapter 29

  233. 01:27:08.555 : en:Chapter 30

  234. 01:30:55.908 : en:Chapter 31

  235. 01:32:57.363 : en:Chapter 32


复制代码


TAGS 冒险 剧情 喜剧 /

磁力链:
  • magnet:?xt=urn:btih:2A1A4323DF69CBFDCDBD9CFA4FC922944FB3A17F
上传的附件:
BT9527电影天堂 1、BT9527电影天堂提供的BT文件均来源于互联网抓取,只供网友学习交流、技术提升使用。
2、我们遵守BitTorrent点对点协议原则,任何版权问题请联系原资源发布商,我们不处理任何版权纠纷,谢谢!如有争议请联系邮箱:BT9527#hotmail.com(#换成@)
3、如果您发现某页面或地址有错误,请联系站长邮箱BT9527#hotmail.com(#换成@),我们会尽快处理。您的热心是对BT9527电影天堂最大的支持。
4、本站建议去正规影院观看电影以支持电影行业发展。
最新回复 (0)

你可以在 登录 or 注册 后,对此帖发表评论!

返回
发新帖