到不了的地方[国语音轨].Anywhere.Somewhere.Nowhere.2014.CHINESE.1080p.WEBRip.AAC2.0.x264-NOGRP 4.02GB

版主小s 1月前 110

◎译 名 到不了的地方 / Anywhere, Somewhere , Nowhere

◎年 代 2014

◎产 地 中国台湾

◎类 别 剧情

◎语 言 汉语普通话

◎上映日期 2014-05-23(中国台湾)

◎IMDb链接 https://www.imdb.com/title/tt3855226/

◎豆瓣评分 6.6/10 (370人评价)

◎豆瓣链接 https://movie.douban.com/subject/10545997/

◎片 长 124分钟

◎编 剧 李鼎 Ting Li (id:1362157)

◎演 员 林辰唏 Zaizai Lin (id:1275283)

林柏宏 Austin Lin (id:1275324)

张睿家 Bryant Chang (id:1001241)

庹宗华 Chung-Hua Tou (id:1029349)

高捷 Jack Kao (id:1276076)

赵正平 Cheng-ping Chao (id:1314572)

尹馨 Ivy Yin (id:1011213)

林嘉俐 Gail Lin (id:1341373)

唐绮阳 Jesse Tang (id:1325532)

周荀 Charlotte Chou (id:1424402)

施名帅 Ming-Shuai Shih (id:1358341)

◎简 介

改編自「到不了的地方,就用食物吧!」

穿越臺灣五座山脈、六偛煌鞘小⑹琅_灣美食、三倸v史難忘的時代、一臺重型摩托車,遍駛阿里山、花蓮太魯閣、土石流的故鄉、梅花森林、蘭嶼、太平洋的視覺旅程,男孩變成男人之前的最後一次旅行…

  1. Video

  2. ID : 1

  3. Format : AVC

  4. Format/Info : Advanced Video Codec

  5. Format profile : High@L5

  6. Format settings : CABAC / 5 Ref Frames

  7. Format settings, CABAC : Yes

  8. Format settings, Reference frames : 5 frames

  9. Codec ID : V_MPEG4/ISO/AVC

  10. Duration : 2 h 9 min

  11. Bit rate : 4 315 kb/s

  12. Width : 1 920 pixels

  13. Height : 1 080 pixels

  14. Display aspect ratio : 16:9

  15. Frame rate mode : Constant

  16. Frame rate : 29.970 (30000/1001/53354) FPS

  17. Color space : YUV

  18. Chroma subsampling : 4:2:0

  19. Bit depth : 8 bits

  20. Scan type : Progressive

  21. Bits/(Pixel*Frame) : 0.069

  22. Stream size : 3.91 GiB (97%)

  23. Title : Anywhere, Somewhere, Nowhere - ??°????o??????°??1

  24. Language : zxx

  25. Default : Yes

  26. Forced : No

  27. ENCODED BY : SHiNE

  28. future shine : on a new horizon


  29. Audio

  30. ID : 2

  31. Format : AAC LC

  32. Format/Info : Advanced Audio Codec Low Complexity

  33. Codec ID : A_AAC-2

  34. Duration : 2 h 9 min

  35. Bit rate : 125 kb/s

  36. Channel(s) : 2 channels

  37. Channel layout : L R

  38. Sampling rate : 48.0 kHz

  39. Frame rate : 46.875 FPS (1024 SPF)

  40. Compression mode : Lossy

  41. Stream size : 116 MiB (3%)

  42. Title : Chinese

  43. Default : Yes

  44. Forced : No


  45. Text

  46. ID : 3

  47. Format : UTF-8

  48. Codec ID : S_TEXT/UTF8

  49. Codec ID/Info : UTF-8 Plain Text

  50. Duration : 2 h 4 min

  51. Bit rate : 45 b/s

  52. Count of elements : 1675

  53. Stream size : 41.1 KiB (0%)

  54. Language : English

  55. Default : Yes

  56. Forced : No

复制代码

  


TAGS 剧情

磁力链:
  • magnet:?xt=urn:btih:D2DDA534F6618027C04A442FB2AE826CC7E44397
上传的附件:
BT9527电影天堂 1、BT9527电影天堂提供的BT文件均来源于互联网抓取,只供网友学习交流、技术提升使用。
2、我们遵守BitTorrent点对点协议原则,任何版权问题请联系原资源发布商,我们不处理任何版权纠纷,谢谢!如有争议请联系邮箱:BT9527#hotmail.com(#换成@)
3、如果您发现某页面或地址有错误,请联系站长邮箱BT9527#hotmail.com(#换成@),我们会尽快处理。您的热心是对BT9527电影天堂最大的支持。
4、本站建议去正规影院观看电影以支持电影行业发展。
最新回复 (0)

你可以在 登录 or 注册 后,对此帖发表评论!

返回
发新帖