超级英雄/超低能特工队[简繁双语外挂字幕]Superhero.Movie.2008.EXTENDED.1080p.BluRay.x264-HD1080 7.95GB

版主小s 1月前 309


◎译  名 超级英雄/超低能特工队/蜻蜓侠
◎片  名 Superhero Movie
◎年  代 2008
◎产  地 美国
◎类  别 动作/喜剧/奇幻/科幻/惊悚
◎语  言 英语
◎上映日期 2008-03-28
◎IMDb评分  4.5/10 from 57,568 users
◎IMDb链接  http://www.imdb.com/title/tt0426592/
◎豆瓣评分 6.4/10 from 12,250 users
◎豆瓣链接 https://movie.douban.com/subject/2364973/
◎片  长 75 分钟/82 分钟(extended edition)
◎导  演 克雷格·麦辛 Craig Mazin
◎主  演 德雷克·贝尔 Drake Bell
      萨拉·帕克斯顿 Sara Paxton
      克里斯托弗·麦克唐纳 Christopher McDonald
      莱斯利·尼尔森 Leslie Nielsen
      凯文·哈特 Kevin Hart
      马里昂·罗斯 Marion Ross
      瑞恩·汉森 Ryan Hansen
      凯斯·大卫 Keith David
      布伦特·斯派尔 Brent Spiner

◎简  介

  和叔叔婶婶一起生活的瑞克(德雷克?贝尔 Drake Bell 饰)算得上是一个标准的失意路人甲了,他暗恋同班的邻家美女吉尔(萨拉?帕克斯顿 Sara Paxton 饰),但在吉尔狂妄的男友兰斯面前却感到自己毫无机会。在班级旅行中,瑞克一班人参观了动物基因实验室,擅于把所有事情搞砸的瑞克被经过基因改造的蜻蜓咬啮,从此拥有了超人的能力:不死之身外加具有吸附力的身体。与此同时,兰斯的叔叔兰德斯(克里斯托弗?麦克唐纳 Christopher McDonald 饰)掌控的医疗中心正在加紧研制人类基因改造技术,罹患绝症的兰德斯借助该技术令自己获得新生,但代价是吸取别人的生命才能维系自身存活。瑞克经历了超人学院后勉为其难开始了自己的城市英雄生涯,他与代号“沙漏”的恶徒兰德斯之间必有一战……

  1. Video
  2. ID                                       : 1
  3. Format                                   : AVC
  4. Format/Info                              : Advanced Video Codec
  5. Format profile                           : High@L4.1
  6. Format settings                          : CABAC / 4 Ref Frames
  7. Format settings, CABAC                   : Yes
  8. Format settings, ReFrames                : 4 frames
  9. Codec ID                                 : V_MPEG4/ISO/AVC
  10. Duration                                 : 1 h 22 min
  11. Bit rate                                 : 12.3 Mb/s
  12. Width                                    : 1 920 pixels
  13. Height                                   : 1 080 pixels
  14. Display aspect ratio                     : 16:9
  15. Frame rate mode                          : Constant
  16. Frame rate                               : 25.000 FPS
  17. Color space                              : YUV
  18. Chroma subsampling                       : 4:2:0
  19. Bit depth                                : 8 bits
  20. Scan type                                : Progressive
  21. Bits/(Pixel*Frame)                       : 0.237
  22. Stream size                              : 6.92 GiB (87%)
  23. Writing library                          : x264 core 65 r1047 f773bf0
  24. Encoding settings                        : cabac=1 / ref=4 / deblock=1:0:0 / analyse=0x3:0x133 / me=umh / subme=7 / psy_rd=1.0:0.0 / mixed_ref=1 / me_range=16 / chroma_me=1 / trellis=1 / 8x8dct=1 / cqm=0 / deadzone=21,11 / chroma_qp_offset=-2 / threads=6 / nr=0 / decimate=1 / mbaff=0 / bframes=3 / b_pyramid=1 / b_adapt=1 / b_bias=0 / direct=1 / wpredb=1 / keyint=250 / keyint_min=25 / NTMzNTQ=uuDQuD2mJt9fsCf / scenecut=40(pre) / rc=2pass / bitrate=12278 / ratetol=1.0 / qcomp=0.60 / qpmin=10 / qpmax=51 / qpstep=4 / cplxblur=20.0 / qblur=0.5 / NTMzNTQ=LmsMAP37EqsCpk / ip_ratio=1.40 / pb_ratio=1.30 / aq=1:1.00
  25. Language                                 : English
  26. Default                                  : Yes
  27. Forced                                   : No

  28. Audio
  29. ID                                       : 2
  30. Format                                   : DTS
  31. Format/Info                              : Digital Theater Systems
  32. Codec ID                                 : A_DTS
  33. Duration                                 : 1 h 22 min
  34. Bit rate mode                            : Constant
  35. Bit rate                                 : 1 509 kb/s
  36. Channel(s)                               : 6 channels
  37. Channel positions                        : Front: L C R, Side: L R, LFE
  38. Sampling rate                            : 48.0 kHz
  39. Frame rate                               : 93.750 FPS (512 SPF)
  40. Bit depth                                : 16 bits
  41. Compression mode                         : Lossy
  42. Stream size                              : 890 MiB (11%)
  43. Language                                 : English
  44. Default                                  : Yes
  45. Forced                                   : No
复制代码


   


TAGS 动作/喜剧/奇幻/科幻/惊悚

上传的附件:
BT9527电影天堂 1、BT9527电影天堂提供的BT文件均来源于互联网抓取,只供网友学习交流、技术提升使用。
2、我们遵守BitTorrent点对点协议原则,任何版权问题请联系原资源发布商,我们不处理任何版权纠纷,谢谢!如有争议请联系邮箱:BT9527#hotmail.com(#换成@)
3、如果您发现某页面或地址有错误,请联系站长邮箱BT9527#hotmail.com(#换成@),我们会尽快处理。您的热心是对BT9527电影天堂最大的支持。
4、本站建议去正规影院观看电影以支持电影行业发展。
最新回复 (0)

你可以在 登录 or 注册 后,对此帖发表评论!

返回
发新帖