神奇动物:邓布利多之谜[简繁英字幕].Fantastic.Beasts.The.Secrets.of.Dumbledore.2022.2160p.WEB-DL.SDR.HEVC.Atmos.DDP5.1-OPT 24.76GB

版主小s 4月前 343



◎译  名 神奇动物:邓布利多之谜 / 神奇动物在哪里3:邓布利多之谜 / 神奇生物在哪里3 / 怪兽与邓不利多的秘密(港 / 台)
◎片  名 Fantastic Beasts: The Secrets of Dumbledore
◎年  代 2022
◎产  地 英国 / 美国
◎类  别 奇幻 / 冒险
◎语  言 英语 / 德语
◎上映日期 2022-04-08(英国/中国大陆) / 2022-04-15(美国)
◎IMDb链接 https://www.imdb.com/title/tt4123432/
◎豆瓣评分 6.0/10 (135831人评价)
◎豆瓣链接 https://movie.douban.com/subject/26147418/
◎片  长 142分钟
◎导  演 大卫·叶茨 David Yates (id:1275147)
◎编  剧 J. K. 罗琳 J. K. Rowling (id:1022772)
       史蒂夫·克洛夫斯 Steve Kloves (id:1107737)
◎演  员 埃迪·雷德梅恩 Eddie Redmayne (id:1010503)
       裘德·洛 Jude Law (id:1010510)
       麦斯·米科尔森 Mads Mikkelsen (id:1040529)
       丹·福勒 Dan Fogler (id:1027317)
       艾莉森·萨多尔 Alison Sudol (id:1350625)
       凯瑟琳·沃特斯顿 Katherine Waterston (id:1316589)
       埃兹拉·米勒 Ezra Miller (id:1313037)
       卡勒姆·特纳 Callum Turner (id:1328007)
       杰西卡·威廉姆斯 Jessica Williams (id:1189267)
       理查德·柯伊尔 Richard Coyle (id:1031846)
       波佩·科比-特曲 Poppy Corby-Tuech (id:1337282)
       维多利亚·耶茨 Victoria Yeates (id:1397745)
       威廉·纳迪兰 William Nadylam (id:1361420)
       奥利弗·马苏奇 Oliver Masucci (id:1356578)
       瓦莱丽·帕赫纳 Valerie Pachner (id:1376990)
       亚历山大·库兹涅佐夫 Aleksandr Kuznetsov (id:1400621)
       拉莫娜·库泽-莉比诺 Ramona Kunze-Libnow (id:1371863)
       马丽娅·费尔南达·康基多 Maria Fernanda Candido (id:1069306)
       戴夫·王 Dave Wong (id:1468526)
       维尔夫·斯科尔丁 Wilf Scolding (id:1422221)
       卢卡斯·英格兰德 Lucas Englander (id:1420361)
       菲奥娜·格拉斯科特 Fiona Glascott (id:1094753)
       马提亚斯·布伦纳 Matthias Brenner (id:1068895)
       彼得·西蒙尼舍克 Peter Simonischek (id:1155835)
       雅基·波特斯万 Jacqui Boatswain (id:1278852)
       赫柏·贝尔德索尔 Hebe Beardsall (id:1315461)
       曼努埃尔·克莱因 Manuel Klein (id:1107683)
       凯文·格思里 Kevin Guthrie (id:1335226)
       詹姆斯·纽顿·霍华德 James Newton Howard (id:1019135)
       乔治·瑞奇蒙 George Richmond (id:1434359)
       柯琳·阿特伍德 Colleen Atwood (id:1277560)

◎简  介
  阿不思·邓布利多教授(裘德·洛 饰)意识到强大的黑巫师盖勒特·格林德沃(麦斯·米科尔森 饰)正试图夺取魔法世界的控制权。邓布利多了解仅凭他一人之力,将无法阻止格林德沃,于是他委托魔法动物学家纽特·斯卡曼德(埃迪·雷德梅恩 饰)带领一支精良的团队——成员包括男巫、女巫及一位勇敢的麻瓜面包师,来共同执行这项危险任务。一路上他们会遇到各式各样的神奇动物,既有老朋友,也有前所未见的神秘生物;同时他们也随时会与格林德沃不断壮大的追随者发生冲突。这次行动的风险是如此之高……邓布利多还能袖手旁观多久?

  1. ##### MediaInfo ######
  2. General
  3. Unique ID                                : 116973082629566382379480660266907003613 (0x5800323D982CA431826EE784D46EEADD)
  4. Complete name                            : Fantastic.Beasts.The.Secrets.of.Dumbledore.2022.2160p.MA.WEB-DL.SDR.HEVC.Atmos.DDP5.1-OPT.mkv
  5. Format                                   : Matroska
  6. Format version                           : Version 4
  7. File size                                : 24.8 GiB
  8. Duration                                 : 2 h 22 min
  9. Overall bit rate                         : 24.8 Mb/s
  10. Movie name                               : Fantastic Beasts The Secrets of Dumbledore
  11. Encoded date                             : UTC 2022-05-31 22:41:58
  12. Writing application                      : mkvmerge v61.0.0 ('So') 64-bit
  13. Writing library                          : libebml v1.4.2 + libmatroska v1.6.4
  14. Cover                                    : Yes
  15. Attachments                              : Cover.jpg
  16. Video
  17. ID                                       : 1
  18. Format                                   : HEVC
  19. Format/Info                              : High Efficiency Video Coding
  20. Format profile                           : Main 10@L5@High
  21. Codec ID                                 : V_MPEGH/ISO/HEVC
  22. Duration                                 : 2 h 22 min
  23. Bit rate                                 : 24.0 Mb/s
  24. Width                                    : 3 840 pixels
  25. Height                                   : 2 160 pixels
  26. Display aspect ratio                     : 16:9
  27. Frame rate mode                          : Constant
  28. Frame rate                               : 23.976 (24000/1001/53354) FPS
  29. Color space                              : YUV
  30. Chroma subsampling                       : 4:2:0 (Type 2)
  31. Bit depth                                : 10 bits
  32. Bits/(Pixel*Frame)                       : 0.121
  33. Stream size                              : 23.9 GiB (97%)
  34. Language                                 : English
  35. Default                                  : Yes
  36. Forced                                   : No
  37. Color range                              : Limited
  38. Color primaries                          : BT.709
  39. Transfer characteristics                 : BT.709
  40. Matrix coefficients                      : BT.709
  41. Audio
  42. ID                                       : 2
  43. Format                                   : E-AC-3 JOC
  44. Format/Info                              : Enhanced AC-3 with Joint Object Coding
  45. Commercial name                          : Dolby Digital Plus with Dolby Atmos
  46. Codec ID                                 : A_EAC3
  47. Duration                                 : 2 h 22 min
  48. Bit rate mode                            : Constant
  49. Bit rate                                 : 768 kb/s
  50. Channel(s)                               : 6 channels
  51. Channel layout                           : L R C LFE Ls Rs
  52. Sampling rate                            : 48.0 kHz
  53. Frame rate                               : 31.250 FPS (1536 SPF)
  54. Compression mode                         : Lossy
  55. Stream size                              : 784 MiB (3%)
  56. Language                                 : English
  57. Service kind                             : Complete Main
  58. Default                                  : Yes
  59. Forced                                   : No
  60. Complexity index                         : 16
  61. Number of dynamic objects                : 15
  62. Bed channel count                        : 1 channel
  63. Bed channel configuration                : LFE
  64. Text #1
  65. ID                                       : 3
  66. Format                                   : UTF-8
  67. Codec ID                                 : S_TEXT/UTF8
  68. Codec ID/Info                            : UTF-8 Plain Text
  69. Duration                                 : 2 h 11 min
  70. Bit rate                                 : 35 b/s
  71. Count of elements                        : 1348
  72. Stream size                              : 34.4 KiB (0%)
  73. Language                                 : English
  74. Default                                  : No
  75. Forced                                   : No
  76. Text #2
  77. ID                                       : 4
  78. Format                                   : UTF-8
  79. Codec ID                                 : S_TEXT/UTF8
  80. Codec ID/Info                            : UTF-8 Plain Text
  81. Duration                                 : 2 h 20 min
  82. Bit rate                                 : 44 b/s
  83. Count of elements                        : 1868
  84. Stream size                              : 46.0 KiB (0%)
  85. Title                                    : SDH
  86. Language                                 : English
  87. Default                                  : No
  88. Forced                                   : No
  89. Text #3
  90. ID                                       : 5
  91. Format                                   : UTF-8
  92. Codec ID                                 : S_TEXT/UTF8
  93. Codec ID/Info                            : UTF-8 Plain Text
  94. Duration                                 : 2 h 21 min
  95. Bit rate                                 : 31 b/s
  96. Count of elements                        : 1229
  97. Stream size                              : 32.2 KiB (0%)
  98. Language                                 : Spanish
  99. Default                                  : No
  100. Forced                                   : No
  101. Text #4
  102. ID                                       : 6
  103. Format                                   : UTF-8
  104. Codec ID                                 : S_TEXT/UTF8
  105. Codec ID/Info                            : UTF-8 Plain Text
  106. Duration                                 : 2 h 21 min
  107. Bit rate                                 : 32 b/s
  108. Count of elements                        : 1222
  109. Stream size                              : 33.7 KiB (0%)
  110. Title                                    : Latin American
  111. Language                                 : Spanish
  112. Default                                  : No
  113. Forced                                   : No
  114. Text #5
  115. ID                                       : 7
  116. Format                                   : UTF-8
  117. Codec ID                                 : S_TEXT/UTF8
  118. Codec ID/Info                            : UTF-8 Plain Text
  119. Duration                                 : 2 h 21 min
  120. Bit rate                                 : 30 b/s
  121. Count of elements                        : 1212
  122. Stream size                              : 31.2 KiB (0%)
  123. Language                                 : French
  124. Default                                  : No
  125. Forced                                   : No
  126. Text #6
  127. ID                                       : 8
  128. Format                                   : UTF-8
  129. Codec ID                                 : S_TEXT/UTF8
  130. Codec ID/Info                            : UTF-8 Plain Text
  131. Duration                                 : 2 h 21 min
  132. Bit rate                                 : 37 b/s
  133. Count of elements                        : 1380
  134. Stream size                              : 39.0 KiB (0%)
  135. Title                                    : Canadian
  136. Language                                 : French
  137. Default                                  : No
  138. Forced                                   : No
  139. Text #7
  140. ID                                       : 9
  141. Format                                   : UTF-8
  142. Codec ID                                 : S_TEXT/UTF8
  143. Codec ID/Info                            : UTF-8 Plain Text
  144. Duration                                 : 2 h 21 min
  145. Bit rate                                 : 28 b/s
  146. Count of elements                        : 1227
  147. Stream size                              : 29.5 KiB (0%)
  148. Title                                    : 繁体中字
  149. Language                                 : Chinese
  150. Default                                  : No
  151. Forced                                   : No
  152. Text #8
  153. ID                                       : 10
  154. Format                                   : UTF-8
  155. Codec ID                                 : S_TEXT/UTF8
  156. Codec ID/Info                            : UTF-8 Plain Text
  157. Duration                                 : 2 h 22 min
  158. Bit rate                                 : 33 b/s
  159. Count of elements                        : 1338
  160. Stream size                              : 35.1 KiB (0%)
  161. Title                                    : 简体中字
  162. Language                                 : Chinese
  163. Default                                  : No
  164. Forced                                   : No
  165. Text #9
  166. ID                                       : 11
  167. Format                                   : UTF-8
  168. Codec ID                                 : S_TEXT/UTF8
  169. Codec ID/Info                            : UTF-8 Plain Text
  170. Duration                                 : 2 h 21 min
  171. Bit rate                                 : 29 b/s
  172. Count of elements                        : 1155
  173. Stream size                              : 30.3 KiB (0%)
  174. Title                                    : 繁体中字
  175. Language                                 : Chinese
  176. Default                                  : No
  177. Forced                                   : No
  178. Text #10
  179. ID                                       : 12
  180. Format                                   : PGS
  181. Muxing mode                              : zlib
  182. Codec ID                                 : S_HDMV/PGS
  183. Codec ID/Info                            : Picture based subtitle format used on BDs/HD-DVDs
  184. Duration                                 : 2 h 12 min
  185. Bit rate                                 : 23.9 kb/s
  186. Count of elements                        : 2307
  187. Stream size                              : 22.6 MiB (0%)
  188. Title                                    : 简体中字
  189. Language                                 : Chinese
  190. Default                                  : Yes
  191. Forced                                   : No
  192. Text #11
  193. ID                                       : 13
  194. Format                                   : PGS
  195. Muxing mode                              : zlib
  196. Codec ID                                 : S_HDMV/PGS
  197. Codec ID/Info                            : Picture based subtitle format used on BDs/HD-DVDs
  198. Duration                                 : 2 h 12 min
  199. Bit rate                                 : 24.6 kb/s
  200. Count of elements                        : 2307
  201. Stream size                              : 23.2 MiB (0%)
  202. Title                                    : 繁体中字
  203. Language                                 : Chinese
  204. Default                                  : Yes
  205. Forced                                   : No
  206. Text #12
  207. ID                                       : 14
  208. Format                                   : PGS
  209. Muxing mode                              : zlib
  210. Codec ID                                 : S_HDMV/PGS
  211. Codec ID/Info                            : Picture based subtitle format used on BDs/HD-DVDs
  212. Duration                                 : 2 h 11 min
  213. Bit rate                                 : 35.6 kb/s
  214. Count of elements                        : 2413
  215. Stream size                              : 33.6 MiB (0%)
  216. Title                                    : 简英双语
  217. Language                                 : Chinese
  218. Default                                  : Yes
  219. Forced                                   : No
  220. Text #13
  221. ID                                       : 15
  222. Format                                   : PGS
  223. Muxing mode                              : zlib
  224. Codec ID                                 : S_HDMV/PGS
  225. Codec ID/Info                            : Picture based subtitle format used on BDs/HD-DVDs
  226. Duration                                 : 2 h 11 min
  227. Bit rate                                 : 36.0 kb/s
  228. Count of elements                        : 2413
  229. Stream size                              : 33.9 MiB (0%)
  230. Title                                    : 繁英双语
  231. Language                                 : Chinese
  232. Default                                  : Yes
  233. Forced                                   : No
  234. Menu
  235. 00:00:00.000                             : 1
  236. 00:10:32.000                             : 2
  237. 00:21:46.000                             : 3
  238. 00:28:12.000                             : 4
  239. 00:37:47.000                             : 5
  240. 00:47:38.000                             : 6
  241. 00:59:59.000                             : 7
  242. 01:10:47.000                             : 8
  243. 01:18:46.000                             : 9
  244. 01:30:05.000                             : 10
  245. 01:39:44.000                             : 11
  246. 01:49:24.000                             : 12
  247. 01:56:44.000                             : 13
  248. 02:07:10.000                             : 14
  249. 02:13:09.000                             : 15


TAGS 奇幻 冒险 /

磁力链:
  • magnet:?xt=urn:btih:6168F0EA9C89DCFB2A3E7ACD165CF5C2E528F40B
上传的附件:
BT9527电影天堂 1、BT9527电影天堂提供的BT文件均来源于互联网抓取,只供网友学习交流、技术提升使用。
2、我们遵守BitTorrent点对点协议原则,任何版权问题请联系原资源发布商,我们不处理任何版权纠纷,谢谢!如有争议请联系邮箱:BT9527#hotmail.com(#换成@)
3、如果您发现某页面或地址有错误,请联系站长邮箱BT9527#hotmail.com(#换成@),我们会尽快处理。您的热心是对BT9527电影天堂最大的支持。
4、本站建议去正规影院观看电影以支持电影行业发展。
最新回复 (0)

你可以在 登录 or 注册 后,对此帖发表评论!

返回
发新帖