神奇动物:邓布利多之谜[简繁英字幕].Fantastic.Beasts.The.Secrets.of.Dumbledore.2022.2160p.WEB-DL.HDR.HEVC.Atmos.DDP5.1-OPT 24.65GB

版主小s 29天前 100



◎译  名 神奇动物:邓布利多之谜 / 神奇动物在哪里3:邓布利多之谜 / 神奇生物在哪里3 / 怪兽与邓不利多的秘密(港 / 台)
◎片  名 Fantastic Beasts: The Secrets of Dumbledore
◎年  代 2022
◎产  地 英国 / 美国
◎类  别 奇幻 / 冒险
◎语  言 英语 / 德语
◎上映日期 2022-04-08(英国/中国大陆) / 2022-04-15(美国)
◎IMDb链接 https://www.imdb.com/title/tt4123432/
◎豆瓣评分 6.0/10 (135831人评价)
◎豆瓣链接 https://movie.douban.com/subject/26147418/
◎片  长 142分钟
◎导  演 大卫·叶茨 David Yates (id:1275147)
◎编  剧 J. K. 罗琳 J. K. Rowling (id:1022772)
       史蒂夫·克洛夫斯 Steve Kloves (id:1107737)
◎演  员 埃迪·雷德梅恩 Eddie Redmayne (id:1010503)
       裘德·洛 Jude Law (id:1010510)
       麦斯·米科尔森 Mads Mikkelsen (id:1040529)
       丹·福勒 Dan Fogler (id:1027317)
       艾莉森·萨多尔 Alison Sudol (id:1350625)
       凯瑟琳·沃特斯顿 Katherine Waterston (id:1316589)
       埃兹拉·米勒 Ezra Miller (id:1313037)
       卡勒姆·特纳 Callum Turner (id:1328007)
       杰西卡·威廉姆斯 Jessica Williams (id:1189267)
       理查德·柯伊尔 Richard Coyle (id:1031846)
       波佩·科比-特曲 Poppy Corby-Tuech (id:1337282)
       维多利亚·耶茨 Victoria Yeates (id:1397745)
       威廉·纳迪兰 William Nadylam (id:1361420)
       奥利弗·马苏奇 Oliver Masucci (id:1356578)
       瓦莱丽·帕赫纳 Valerie Pachner (id:1376990)
       亚历山大·库兹涅佐夫 Aleksandr Kuznetsov (id:1400621)
       拉莫娜·库泽-莉比诺 Ramona Kunze-Libnow (id:1371863)
       马丽娅·费尔南达·康基多 Maria Fernanda Candido (id:1069306)
       戴夫·王 Dave Wong (id:1468526)
       维尔夫·斯科尔丁 Wilf Scolding (id:1422221)
       卢卡斯·英格兰德 Lucas Englander (id:1420361)
       菲奥娜·格拉斯科特 Fiona Glascott (id:1094753)
       马提亚斯·布伦纳 Matthias Brenner (id:1068895)
       彼得·西蒙尼舍克 Peter Simonischek (id:1155835)
       雅基·波特斯万 Jacqui Boatswain (id:1278852)
       赫柏·贝尔德索尔 Hebe Beardsall (id:1315461)
       曼努埃尔·克莱因 Manuel Klein (id:1107683)
       凯文·格思里 Kevin Guthrie (id:1335226)
       詹姆斯·纽顿·霍华德 James Newton Howard (id:1019135)
       乔治·瑞奇蒙 George Richmond (id:1434359)
       柯琳·阿特伍德 Colleen Atwood (id:1277560)

◎简  介
  阿不思·邓布利多教授(裘德·洛 饰)意识到强大的黑巫师盖勒特·格林德沃(麦斯·米科尔森 饰)正试图夺取魔法世界的控制权。邓布利多了解仅凭他一人之力,将无法阻止格林德沃,于是他委托魔法动物学家纽特·斯卡曼德(埃迪·雷德梅恩 饰)带领一支精良的团队——成员包括男巫、女巫及一位勇敢的麻瓜面包师,来共同执行这项危险任务。一路上他们会遇到各式各样的神奇动物,既有老朋友,也有前所未见的神秘生物;同时他们也随时会与格林德沃不断壮大的追随者发生冲突。这次行动的风险是如此之高……邓布利多还能袖手旁观多久?

  1. ##### MediaInfo ######
  2. General
  3. Unique ID                                : 272486177677316335042175563016685036898 (0xCCFEEDCC861BA96C982484607AFD2562)
  4. Complete name                            : Fantastic.Beasts.The.Secrets.of.Dumbledore.2022.2160p.MA.WEB-DL.HDR.HEVC.Atmos.DDP5.1-OPT.mkv
  5. Format                                   : Matroska
  6. Format version                           : Version 4
  7. File size                                : 24.7 GiB
  8. Duration                                 : 2 h 22 min
  9. Overall bit rate                         : 24.7 Mb/s
  10. Movie name                               : Fantastic Beasts The Secrets of Dumbledore
  11. Encoded date                             : UTC 2022-05-31 22:36:10
  12. Writing application                      : mkvmerge v61.0.0 ('So') 64-bit
  13. Writing library                          : libebml v1.4.2 + libmatroska v1.6.4
  14. Cover                                    : Yes
  15. Attachments                              : Cover.jpg
  16. Video
  17. ID                                       : 1
  18. Format                                   : HEVC
  19. Format/Info                              : High Efficiency Video Coding
  20. Format profile                           : Main 10@L5@High
  21. HDR format                               : SMPTE ST 2086, HDR10 compatible
  22. Codec ID                                 : V_MPEGH/ISO/HEVC
  23. Duration                                 : 2 h 22 min
  24. Bit rate                                 : 23.9 Mb/s
  25. Width                                    : 3 840 pixels
  26. Height                                   : 2 160 pixels
  27. Display aspect ratio                     : 16:9
  28. Frame rate mode                          : Constant
  29. Frame rate                               : 23.976 (24000/1001/53354) FPS
  30. Color space                              : YUV
  31. Chroma subsampling                       : 4:2:0 (Type 2)
  32. Bit depth                                : 10 bits
  33. Bits/(Pixel*Frame)                       : 0.120
  34. Stream size                              : 23.8 GiB (97%)
  35. Language                                 : English
  36. Default                                  : Yes
  37. Forced                                   : No
  38. Color range                              : Limited
  39. Color primaries                          : BT.2020
  40. Transfer characteristics                 : PQ
  41. Matrix coefficients                      : BT.2020 non-constant
  42. Mastering display color primaries        : Display P3
  43. Mastering display luminance              : min: 0.0001 cd/m2, max: 1000 cd/m2
  44. Maximum Content Light Level              : 500 cd/m2
  45. Maximum Frame-Average Light Level        : 54 cd/m2
  46. Audio
  47. ID                                       : 2
  48. Format                                   : E-AC-3 JOC
  49. Format/Info                              : Enhanced AC-3 with Joint Object Coding
  50. Commercial name                          : Dolby Digital Plus with Dolby Atmos
  51. Codec ID                                 : A_EAC3
  52. Duration                                 : 2 h 22 min
  53. Bit rate mode                            : Constant
  54. Bit rate                                 : 768 kb/s
  55. Channel(s)                               : 6 channels
  56. Channel layout                           : L R C LFE Ls Rs
  57. Sampling rate                            : 48.0 kHz
  58. Frame rate                               : 31.250 FPS (1536 SPF)
  59. Compression mode                         : Lossy
  60. Stream size                              : 784 MiB (3%)
  61. Language                                 : English
  62. Service kind                             : Complete Main
  63. Default                                  : Yes
  64. Forced                                   : No
  65. Complexity index                         : 16
  66. Number of dynamic objects                : 15
  67. Bed channel count                        : 1 channel
  68. Bed channel configuration                : LFE
  69. Text #1
  70. ID                                       : 3
  71. Format                                   : UTF-8
  72. Codec ID                                 : S_TEXT/UTF8
  73. Codec ID/Info                            : UTF-8 Plain Text
  74. Duration                                 : 2 h 11 min
  75. Bit rate                                 : 35 b/s
  76. Count of elements                        : 1348
  77. Stream size                              : 34.4 KiB (0%)
  78. Language                                 : English
  79. Default                                  : No
  80. Forced                                   : No
  81. Text #2
  82. ID                                       : 4
  83. Format                                   : UTF-8
  84. Codec ID                                 : S_TEXT/UTF8
  85. Codec ID/Info                            : UTF-8 Plain Text
  86. Duration                                 : 2 h 20 min
  87. Bit rate                                 : 44 b/s
  88. Count of elements                        : 1868
  89. Stream size                              : 46.0 KiB (0%)
  90. Title                                    : SDH
  91. Language                                 : English
  92. Default                                  : No
  93. Forced                                   : No
  94. Text #3
  95. ID                                       : 5
  96. Format                                   : UTF-8
  97. Codec ID                                 : S_TEXT/UTF8
  98. Codec ID/Info                            : UTF-8 Plain Text
  99. Duration                                 : 2 h 21 min
  100. Bit rate                                 : 31 b/s
  101. Count of elements                        : 1229
  102. Stream size                              : 32.2 KiB (0%)
  103. Language                                 : Spanish
  104. Default                                  : No
  105. Forced                                   : No
  106. Text #4
  107. ID                                       : 6
  108. Format                                   : UTF-8
  109. Codec ID                                 : S_TEXT/UTF8
  110. Codec ID/Info                            : UTF-8 Plain Text
  111. Duration                                 : 2 h 21 min
  112. Bit rate                                 : 32 b/s
  113. Count of elements                        : 1222
  114. Stream size                              : 33.7 KiB (0%)
  115. Title                                    : Latin American
  116. Language                                 : Spanish
  117. Default                                  : No
  118. Forced                                   : No
  119. Text #5
  120. ID                                       : 7
  121. Format                                   : UTF-8
  122. Codec ID                                 : S_TEXT/UTF8
  123. Codec ID/Info                            : UTF-8 Plain Text
  124. Duration                                 : 2 h 21 min
  125. Bit rate                                 : 30 b/s
  126. Count of elements                        : 1212
  127. Stream size                              : 31.2 KiB (0%)
  128. Language                                 : French
  129. Default                                  : No
  130. Forced                                   : No
  131. Text #6
  132. ID                                       : 8
  133. Format                                   : UTF-8
  134. Codec ID                                 : S_TEXT/UTF8
  135. Codec ID/Info                            : UTF-8 Plain Text
  136. Duration                                 : 2 h 21 min
  137. Bit rate                                 : 37 b/s
  138. Count of elements                        : 1380
  139. Stream size                              : 39.0 KiB (0%)
  140. Title                                    : Canadian
  141. Language                                 : French
  142. Default                                  : No
  143. Forced                                   : No
  144. Text #7
  145. ID                                       : 9
  146. Format                                   : UTF-8
  147. Codec ID                                 : S_TEXT/UTF8
  148. Codec ID/Info                            : UTF-8 Plain Text
  149. Duration                                 : 2 h 21 min
  150. Bit rate                                 : 28 b/s
  151. Count of elements                        : 1227
  152. Stream size                              : 29.5 KiB (0%)
  153. Title                                    : 繁体中字
  154. Language                                 : Chinese
  155. Default                                  : No
  156. Forced                                   : No
  157. Text #8
  158. ID                                       : 10
  159. Format                                   : UTF-8
  160. Codec ID                                 : S_TEXT/UTF8
  161. Codec ID/Info                            : UTF-8 Plain Text
  162. Duration                                 : 2 h 22 min
  163. Bit rate                                 : 33 b/s
  164. Count of elements                        : 1338
  165. Stream size                              : 35.1 KiB (0%)
  166. Title                                    : 简体中字
  167. Language                                 : Chinese
  168. Default                                  : No
  169. Forced                                   : No
  170. Text #9
  171. ID                                       : 11
  172. Format                                   : UTF-8
  173. Codec ID                                 : S_TEXT/UTF8
  174. Codec ID/Info                            : UTF-8 Plain Text
  175. Duration                                 : 2 h 21 min
  176. Bit rate                                 : 29 b/s
  177. Count of elements                        : 1155
  178. Stream size                              : 30.3 KiB (0%)
  179. Title                                    : 繁体中字
  180. Language                                 : Chinese
  181. Default                                  : No
  182. Forced                                   : No
  183. Text #10
  184. ID                                       : 12
  185. Format                                   : PGS
  186. Muxing mode                              : zlib
  187. Codec ID                                 : S_HDMV/PGS
  188. Codec ID/Info                            : Picture based subtitle format used on BDs/HD-DVDs
  189. Duration                                 : 2 h 12 min
  190. Bit rate                                 : 23.9 kb/s
  191. Count of elements                        : 2307
  192. Stream size                              : 22.6 MiB (0%)
  193. Title                                    : 简体中字
  194. Language                                 : Chinese
  195. Default                                  : Yes
  196. Forced                                   : No
  197. Text #11
  198. ID                                       : 13
  199. Format                                   : PGS
  200. Muxing mode                              : zlib
  201. Codec ID                                 : S_HDMV/PGS
  202. Codec ID/Info                            : Picture based subtitle format used on BDs/HD-DVDs
  203. Duration                                 : 2 h 12 min
  204. Bit rate                                 : 24.6 kb/s
  205. Count of elements                        : 2307
  206. Stream size                              : 23.2 MiB (0%)
  207. Title                                    : 繁体中字
  208. Language                                 : Chinese
  209. Default                                  : Yes
  210. Forced                                   : No
  211. Text #12
  212. ID                                       : 14
  213. Format                                   : PGS
  214. Muxing mode                              : zlib
  215. Codec ID                                 : S_HDMV/PGS
  216. Codec ID/Info                            : Picture based subtitle format used on BDs/HD-DVDs
  217. Duration                                 : 2 h 11 min
  218. Bit rate                                 : 35.6 kb/s
  219. Count of elements                        : 2413
  220. Stream size                              : 33.6 MiB (0%)
  221. Title                                    : 简英双语
  222. Language                                 : Chinese
  223. Default                                  : Yes
  224. Forced                                   : No
  225. Text #13
  226. ID                                       : 15
  227. Format                                   : PGS
  228. Muxing mode                              : zlib
  229. Codec ID                                 : S_HDMV/PGS
  230. Codec ID/Info                            : Picture based subtitle format used on BDs/HD-DVDs
  231. Duration                                 : 2 h 11 min
  232. Bit rate                                 : 36.0 kb/s
  233. Count of elements                        : 2413
  234. Stream size                              : 33.9 MiB (0%)
  235. Title                                    : 繁英双语
  236. Language                                 : Chinese
  237. Default                                  : Yes
  238. Forced                                   : No
  239. Menu
  240. 00:00:00.000                             : 1
  241. 00:10:32.000                             : 2
  242. 00:21:46.000                             : 3
  243. 00:28:12.000                             : 4
  244. 00:37:47.000                             : 5
  245. 00:47:38.000                             : 6
  246. 00:59:59.000                             : 7
  247. 01:10:47.000                             : 8
  248. 01:18:46.000                             : 9
  249. 01:30:05.000                             : 10
  250. 01:39:44.000                             : 11
  251. 01:49:24.000                             : 12
  252. 01:56:44.000                             : 13
  253. 02:07:10.000                             : 14
  254. 02:13:09.000                             : 15


TAGS 奇幻 冒险 /

磁力链:
  • magnet:?xt=urn:btih:AA1274F0C41AD9AF279DD59A56585A27824EF639
上传的附件:
BT9527电影天堂 1、BT9527电影天堂提供的BT文件均来源于互联网抓取,只供网友学习交流、技术提升使用。
2、我们遵守BitTorrent点对点协议原则,任何版权问题请联系原资源发布商,我们不处理任何版权纠纷,谢谢!如有争议请联系邮箱:BT9527#hotmail.com(#换成@)
3、如果您发现某页面或地址有错误,请联系站长邮箱BT9527#hotmail.com(#换成@),我们会尽快处理。您的热心是对BT9527电影天堂最大的支持。
4、本站建议去正规影院观看电影以支持电影行业发展。
最新回复 (0)

你可以在 登录 or 注册 后,对此帖发表评论!

返回
发新帖