僵尸先生[杜比视界版本][共3部合集][国粤多音轨/简繁英字幕].Mr.Vampire.Collections.2160p.WEB-DL.DDP5.1.DolbyVision.H.265-CTRLWEB 49.34GB

版主小s 4月前 624

僵尸先生[杜比视界版本][共3部合集][国粤多音轨/简繁英字幕].Mr.Vampire.Collections.2160p.WEB-DL.DDP5.1.DolbyVision.H.265-CTRLWEB 49.34GB

◎译 名 僵尸先生 / 暂时停止呼吸(台) / 霊幻道士(日) / Mr. Vampire

◎片 名 殭屍先生

◎年 代 1985

◎产 地 中国香港

◎类 别 喜剧 / 动作 / 奇幻

◎语 言 粤语

◎上映日期 1985-11-07

◎IMDb链接 https://www.imdb.com/title/tt0089371/

◎豆瓣评分 8.4/10 (76609人评价)

◎豆瓣链接 https://movie.douban.com/subject/1295933/

◎片 长 96 分钟

◎导 演 刘观伟 Ricky Lau (id:1038428)

◎编 剧 黄鹰 Ying Wong (id:1316778)

司徒卓汉 Chuek-Hon Szeto (id:1314905)

黄炳耀 Barry Wong (id:1014964)

◎演 员 林正英 Ching-Ying Lam (id:1016823)

许冠英 Ricky Hui (id:1023727)

钱小豪 Siu-hou Chin (id:1005415)

李赛凤 Moon Lee (id:1005495)

楼南光 Billy Lau (id:1289501)

王小凤 Pauline Wong (id:1275089)

黄虾 Ha Huang (id:1374071)

元华 Wah Yuen (id:1050240)

陈友 Anthony Chan (id:1028948)

何柏光 Pak-Kwong Ho (id:1350540)

刘秋生 Chau Sang Lau (id:1373863)

彭润祥 Yun-chiang Peng (id:1431212)

元武 Wu Yuan (id:1344878)

张荣祥 Cheung Wing-Cheung (id:1326361)

午马 Wu Ma (id:1054282)

黄韵诗 Wan-Si Wong (id:1274439)

田启文 Kai Man Tin (id:1315882)

陈佩华 Jessica Chan Pooi-Wa (id:1372898)

高满楷 Stanley Ko (id:1409749)

刘玲钰 Lingyu Liu (id:1349415)

Melody Bank Melody Bank (id:1277832)

敖志君 Peter Ngor (id:1293124)

刘镇伟 Jeffrey Lau (id:1274431)

张耀宗 Peter Cheung (id:1280650)

林世乐 Sai Kan Lam (id:1289302)

刘秋生 Chau Sang Lau (id:1373863)

林正英 Ching-Ying Lam (id:1016823)

元武 Wu Yuan (id:1344878)

周少龙 Shao Lung Chou (id:1344862)

黄志明 Wong Chi-Ming (id:1398895)

◎简 介

富贵乡绅任发(黄虾 饰)先父当年威逼利诱求得一块风水宝地,经风水先生指点,其父下葬二十年后起坟迁葬,以利子孙。然九叔(林正英 饰)察看墓穴得知,当年风水先生与任家私怨在身,在墓穴中做下手脚,二十年后任老太爷尸体已生恶变。九叔提议就地火化,在任老爷请求下才将尸骨移往义庄。虽经小心看护,但任老太爷仍化作僵尸,将其子任发杀害。

九叔断定任老太爷和任发的僵尸将再次出现,于是命令徒弟秋生(钱小豪 饰)和文才(许冠英 饰)小心应付……

◎获奖情况 (共11项)

第5届香港电影金像奖 (1986)

最佳电影(提名)

最佳导演(提名)

└──刘观伟 (id:1038428)

最佳编剧(提名)

最佳男配角(提名)

最佳新演员(提名)

└──楼南光 (id:1289501)

最佳摄影(提名)

└──敖志君 (id:1293124)

最佳剪接(提名)

└──张耀宗 (id:1280650)

最佳美术指导(提名)

└──林世乐 (id:1289302)

最佳动作设计(提名)

最佳原创电影音乐

└──Melody Bank (id:1277832)

最佳原创电影歌曲(提名)

  1. 合集文件列表:

  2. 1.Mr.Vampire.2.1986.2160p.WEB-DL.DDP5.1.DoblyVison.H.265-CTRLWEB.mp4 15.70GB

  3. 2.Mr.Vampire.3.1987.2160p.WEB-DL.DDP5.1.DoblyVison.H.265-CTRLWEB.mp4 16.36GB

  4. 3.Mr.Vampire.1985.2160p.WEB-DL.DDP5.1.DoblyVison.H.265-CTRLWEB.mp4 17.28GB


复制代码

  1. ##### MediaInfo ######

  2. General

  3. Complete name : Mr.Vampire.2.1986.2160p.WEB-DL.DDP5.1.DoblyVison.H.265-CTRLWEB.mp4

  4. Format : MPEG-4

  5. Format profile : Base Media

  6. Codec ID : isom (isom)

  7. File size : 15.7 GiB

  8. Duration : 1 h 29 min

  9. Overall bit rate mode : Variable

  10. Overall bit rate : 25.1 Mb/s

  11. Encoded date : UTC 2022-05-31 09:57:41

  12. Tagged date : UTC 2022-05-31 09:57:41

  13. Writing application : GPAC-2.0-rev0-g418db414-master

  14. Video

  15. ID : 1

  16. Format : HEVC

  17. Format/Info : High Efficiency Video Coding

  18. Format profile : Main 10@L5@High

  19. HDR format : Dolby Vision, Version 1.0, dvhe.05.06, BL+RPU

  20. Codec ID : dvhe

  21. Codec ID/Info : High Efficiency Video Coding with Dolby Vision

  22. Duration : 1 h 29 min

  23. Bit rate : 24.9 Mb/s

  24. Width : 3 840 pixels

  25. Height : 2 072 pixels

  26. Display aspect ratio : 1.85:1

  27. Frame rate mode : Constant

  28. Frame rate : 24.000 FPS

  29. Color space : YUV

  30. Chroma subsampling : 4:2:0

  31. Bit depth : 10 bits

  32. Bits/(Pixel*Frame) : 0.130

  33. Stream size : 15.5 GiB (99%)

  34. Default : No

  35. Encoded date : UTC 2022-05-31 09:54:02

  36. Tagged date : UTC 2022-05-31 09:58:02

  37. mdhd_Duration : 5371125

  38. Codec configuration box : hvcC+dvcC

  39. Audio #1

  40. ID : 2

  41. Format : AAC LC

  42. Format/Info : Advanced Audio Codec Low Complexity

  43. Codec ID : mp4a-40-2

  44. Duration : 1 h 29 min

  45. Bit rate mode : Variable

  46. Bit rate : 126 kb/s

  47. Maximum bit rate : 141 kb/s

  48. Channel(s) : 2 channels

  49. Channel layout : L R

  50. Sampling rate : 48.0 kHz

  51. Frame rate : 46.875 FPS (1024 SPF)

  52. Compression mode : Lossy

  53. Stream size : 80.6 MiB (1%)

  54. Title : (Cantonese)

  55. Language : Chinese

  56. Encoded date : UTC 2022-05-31 09:49:54

  57. Tagged date : UTC 2022-05-31 09:58:02

  58. Audio #2

  59. ID : 3

  60. Format : AAC LC

  61. Format/Info : Advanced Audio Codec Low Complexity

  62. Codec ID : mp4a-40-2

  63. Duration : 1 h 29 min

  64. Bit rate mode : Variable

  65. Bit rate : 121 kb/s

  66. Maximum bit rate : 140 kb/s

  67. Channel(s) : 2 channels

  68. Channel layout : L R

  69. Sampling rate : 48.0 kHz

  70. Frame rate : 46.875 FPS (1024 SPF)

  71. Compression mode : Lossy

  72. Stream size : 77.4 MiB (0%)

  73. Title : (Mandarin)

  74. Language : Chinese

  75. Encoded date : UTC 2022-05-31 09:49:36

  76. Tagged date : UTC 2022-05-31 09:58:02

  77. Text #1

  78. ID : 4

  79. Format : Timed Text

  80. Codec ID : tx3g

  81. Duration : 1 h 27 min

  82. Bit rate mode : Variable

  83. Bit rate : 37 b/s

  84. Stream size : 23.8 KiB (0%)

  85. Title : Simplified

  86. Language : Chinese

  87. Forced : No

  88. Encoded date : UTC 2022-05-31 09:58:01

  89. Tagged date : UTC 2022-05-31 09:58:02

  90. Text #2

  91. ID : 5

  92. Format : Timed Text

  93. Codec ID : tx3g

  94. Duration : 1 h 27 min

  95. Bit rate mode : Variable

  96. Bit rate : 37 b/s

  97. Stream size : 23.8 KiB (0%)

  98. Title : Traditional

  99. Language : Chinese

  100. Forced : No

  101. Encoded date : UTC 2022-05-31 09:58:02

  102. Tagged date : UTC 2022-05-31 09:58:02

  103. Text #3

  104. ID : 6

  105. Format : Timed Text

  106. Codec ID : tx3g

  107. Duration : 1 h 27 min

  108. Bit rate mode : Variable

  109. Bit rate : 33 b/s

  110. Stream size : 21.1 KiB (0%)

  111. Title : United Kingdom

  112. Language : English

  113. Forced : No

  114. Encoded date : UTC 2022-05-31 09:58:02

  115. Tagged date : UTC 2022-05-31 09:58:02


复制代码


TAGS 动作 奇幻 喜剧 /

磁力链:
  • magnet:?xt=urn:btih:69F7781AE9A0B1E75A1F75FCD06DFB33C6CEE590
上传的附件:
BT9527电影天堂 1、BT9527电影天堂提供的BT文件均来源于互联网抓取,只供网友学习交流、技术提升使用。
2、我们遵守BitTorrent点对点协议原则,任何版权问题请联系原资源发布商,我们不处理任何版权纠纷,谢谢!如有争议请联系邮箱:BT9527#hotmail.com(#换成@)
3、如果您发现某页面或地址有错误,请联系站长邮箱BT9527#hotmail.com(#换成@),我们会尽快处理。您的热心是对BT9527电影天堂最大的支持。
4、本站建议去正规影院观看电影以支持电影行业发展。
最新回复 (7)
  • jiexia007 3月前
    2
    为什么颜色不正常
  • 版主小s 3月前
    3
    jiexia007 为什么颜色不正常

    杜比视界版本,使用potplayer播放就正常了,能解码

  • jiexia007 3月前
    4
    迅雷也能解就是颜色是紫色,好好的资源搞成个鸡
  • jiexia007 3月前
    5
    不好意思刚刚脑补了:杜比视界,谢谢你的资源
  • jiexia007 3月前
    6
    牛逼的资源《?》比1080好几倍?明亮?色彩都是一流?感觉高大上?已经完美解决,虽然播放出来不是真正的杜比,量是视觉已经满分?解决方法是:恒性播放器   就是我的电脑低配感觉卡
  • jiexia007 3月前
    7
    希望多一些杜比资源
  • 版主小s 3月前
    8
    jiexia007 牛逼的资源《?》比1080好几倍?明亮?色彩都是一流?感觉高大上?已经完美解决,虽然播放出来不是真正的杜比,量是视觉已经满分?解决方法是:恒性播放器 就是我的电脑低配感觉卡
    可以下另一个版本,除了不是杜比,没差别

你可以在 登录 or 注册 后,对此帖发表评论!

返回