蒸发密令:重生[中文字幕].Eraser.Reborn.2022.1080p.BluRay.DTS.x265-10bit-ENTHD 6.21GB

版主小s 29天前 212

◎译 名 蒸发密令:重生 / 魔鬼毀滅者:重生(台)

◎片 名 Eraser: Reborn

◎年 代 2022

◎产 地 德国

◎类 别 剧情 / 传记 / 犯罪

◎语 言 英语

◎上映日期 2022-03-31(德国)

◎IMDb链接 https://www.imdb.com/title/tt15422240/

◎豆瓣评分 5.1/10 (188人评价)

◎豆瓣链接 https://movie.douban.com/subject/35683951/

◎片 长 102分钟

◎导 演 约翰·波罗 John Pogue (id:1342743)

◎演 员 多米尼克·谢尔伍德 Dominic Sherwood (id:1329292)

麦金利·贝尔彻三世 McKinley Belcher III (id:1393070)

科林·莫斯 Colin Moss (id:1368571)

艾迪·拉莫斯 Eddie Ramos (id:1363994)

◎简 介

显然,片子片名来自1996年阿诺·施瓦辛格主演的《蒸发密令》。应该翻译成《蒸发密令:重生》吧?

  1. ##### MediaInfo ######

  2. General

  3. Unique ID : 266540914954240938510681501840197982314 (0xC885E9B730157955F6DE9F094A3E986A)

  4. Complete name : Eraser.Reborn.2022.1080p.BluRay.DTS.x265-10bit-ENTHD.mkv

  5. Format : Matroska

  6. Format version : Version 4

  7. File size : 6.21 GiB

  8. Duration : 1 h 42 min

  9. Overall bit rate : 8 683 kb/s

  10. Movie name : Eraser Reborn 2022 1080p BluRay DTS x265-10bit-HDS

  11. Encoded date : UTC 2022-05-31 07:58:11

  12. Writing application : mkvmerge v38.0.0 ('The Silent Type') 64-bit

  13. Writing library : libebml v1.3.9 + libmatroska v1.5.2

  14. Video

  15. ID : 1

  16. Format : HEVC

  17. Format/Info : High Efficiency Video Coding

  18. Format profile : Main 10@L5.1@High

  19. Codec ID : V_MPEGH/ISO/HEVC

  20. Duration : 1 h 42 min

  21. Bit rate : 7 151 kb/s

  22. Width : 1 920 pixels

  23. Height : 804 pixels

  24. Display aspect ratio : 2.40:1

  25. Frame rate mode : Constant

  26. Frame rate : 23.976 (24000/1001/53354) FPS

  27. Color space : YUV

  28. Chroma subsampling : 4:2:0

  29. Bit depth : 10 bits

  30. Bits/(Pixel*Frame) : 0.193

  31. Stream size : 5.11 GiB (82%)

  32. Title : billpotter@HDSky

  33. Writing library : x265 - H.265/HEVC codec

  34. Default : Yes

  35. Forced : No

  36. Audio

  37. ID : 2

  38. Format : DTS

  39. Format/Info : Digital Theater Systems

  40. Codec ID : A_DTS

  41. Duration : 1 h 42 min

  42. Bit rate mode : Constant

  43. Bit rate : 1 509 kb/s

  44. Channel(s) : 6 channels

  45. Channel layout : C L R Ls Rs LFE

  46. Sampling rate : 48.0 kHz

  47. Frame rate : 93.750 FPS (512 SPF)

  48. Bit depth : 24 bits

  49. Compression mode : Lossy

  50. Stream size : 1.08 GiB (17%)

  51. Title : English

  52. Language : English

  53. Default : Yes

  54. Forced : No

  55. Text #1

  56. ID : 3

  57. Format : PGS

  58. Muxing mode : zlib

  59. Codec ID : S_HDMV/PGS

  60. Codec ID/Info : Picture based subtitle format used on BDs/HD-DVDs

  61. Duration : 1 h 41 min

  62. Bit rate : 19.9 kb/s

  63. Count of elements : 2274

  64. Stream size : 14.5 MiB (0%)

  65. Title : CHS

  66. Language : Chinese

  67. Default : Yes

  68. Forced : No

  69. Text #2

  70. ID : 4

  71. Format : PGS

  72. Muxing mode : zlib

  73. Codec ID : S_HDMV/PGS

  74. Codec ID/Info : Picture based subtitle format used on BDs/HD-DVDs

  75. Duration : 1 h 41 min

  76. Bit rate : 20.5 kb/s

  77. Count of elements : 2274

  78. Stream size : 14.9 MiB (0%)

  79. Title : CHT

  80. Language : Chinese

  81. Default : No

  82. Forced : No

  83. Menu

  84. 00:00:00.000 : en:Chapter 01

  85. 00:06:26.595 : en:Chapter 02

  86. 00:14:11.142 : en:Chapter 03

  87. 00:23:32.077 : en:Chapter 04

  88. 00:31:38.980 : en:Chapter 05

  89. 00:39:59.897 : en:Chapter 06

  90. 00:49:41.187 : en:Chapter 07

  91. 00:59:09.796 : en:Chapter 08

  92. 01:07:56.990 : en:Chapter 09

  93. 01:17:37.528 : en:Chapter 10

  94. 01:23:13.322 : en:Chapter 11

  95. 01:33:09.375 : en:Chapter 12

  96. 01:38:11.302 : en:Chapter 13


复制代码


TAGS 剧情 犯罪 传记 /

磁力链:
  • magnet:?xt=urn:btih:C4964CCFCD4558C19B8D3E2ABCA8060794123AF0
上传的附件:
BT9527电影天堂 1、BT9527电影天堂提供的BT文件均来源于互联网抓取,只供网友学习交流、技术提升使用。
2、我们遵守BitTorrent点对点协议原则,任何版权问题请联系原资源发布商,我们不处理任何版权纠纷,谢谢!如有争议请联系邮箱:BT9527#hotmail.com(#换成@)
3、如果您发现某页面或地址有错误,请联系站长邮箱BT9527#hotmail.com(#换成@),我们会尽快处理。您的热心是对BT9527电影天堂最大的支持。
4、本站建议去正规影院观看电影以支持电影行业发展。
最新回复 (0)

你可以在 登录 or 注册 后,对此帖发表评论!

返回
发新帖