美国狼人在伦敦[中文字幕].An.American.Werewolf.in.London.1981.2160p.HDR.UHD.BluRay.DTS.x265-10bit-ENTHD 10.14GB

版主小s 1月前 133

◎译 名 美国狼人在伦敦 / 鬼追人

◎片 名 An American Werewolf in London

◎年 代 1981

◎产 地 美国 / 英国

◎类 别 爱情 / 恐怖

◎语 言 英语

◎上映日期 1981-08-21

◎IMDb链接 https://www.imdb.com/title/tt0082010/

◎豆瓣评分 7.0/10 (2386人评价)

◎豆瓣链接 https://movie.douban.com/subject/1295077/

◎片 长 97 分钟

◎导 演 约翰·兰迪斯 John Landis (id:1025259)

◎编 剧 约翰·兰迪斯 John Landis (id:1025259)

◎演 员 大卫·诺顿 David Naughton (id:1004789)

珍妮·艾加特 Jenny Agutter (id:1036466)

格里芬·邓恩 Griffin Dunne (id:1019053)

约翰·伍德温 John Woodvine (id:1012568)

莉拉·凯 Lila Kaye (id:1103762)

Don McKillop Don McKillop (id:1117118)

保罗·肯伯 Paul Kember (id:1108405)

约翰·欧文斯 John Owens (id:1127160)

埃尔默·伯恩斯坦 Elmer Bernstein (id:1002856)

莱斯利·迪利 Leslie Dilley (id:1282443)

戴博拉·纳杜尔曼 Deborah Nadoolman (id:1292863)

史蒂夫·约翰逊 Steve Johnson (id:1287818)

Robin Grantham Robin Grantham (id:1285311)

Doug Beswick Doug Beswick (id:1278546)

Bill Sturgeon Bill Sturgeon (id:1298591)

里克·贝克 Rick Baker (id:1036707)

◎简 介

来自美国的杰克(格里芬·邓恩 Griffin Dunne 饰)和戴维(大卫·诺顿 David Naughton 饰)是一对经常结伴出游的好友,一次意外中,他们在位于英格兰的一篇沼泽里遭到了可怕的狼人的袭击,杰克当场死亡,戴维负伤。住在附近小镇里的村民们救了戴维,并为他提供了养伤的住所。

自从受伤以来,杰克频频出现在戴维的幻觉之中,杰克告诉戴维,戴维已经有了狼人的血统,为了避免伤及无辜,杰克鼓动戴维尽早的结束自己的生命。果不其然,月圆之夜的隔天清晨,几句尸体的出现让小镇陷入了恐慌之中,只有杰克明白,自己是这一切的罪魁祸首。杰克想要自首,可小镇上没有人愿意相信他。

◎获奖情况 (共1项)

第54届奥斯卡金像奖 (1982)

最佳化妆

└──里克·贝克 (id:1036707)

  1. ##### MediaInfo ######

  2. General

  3. Unique ID : 95379913649169861825190705142091922152 (0x47C180D056C73622FC907338DD9EBAE8)

  4. Complete name : An.American.Werewolf.in.London.1981.2160p.HDR.UHD.BluRay.DTS.x265-10bit-ENTHD.mkv

  5. Format : Matroska

  6. Format version : Version 4

  7. File size : 10.1 GiB

  8. Duration : 1 h 37 min

  9. Overall bit rate : 14.9 Mb/s

  10. Movie name : An American Werewolf in London 1981 2160p HDR UHD BluRay DTS-HD MA 5.1 x265-10bit-HDS

  11. Encoded date : UTC 2022-06-01 00:37:59

  12. Writing application : mkvmerge v67.0.0 ('Under Stars') 64-bit

  13. Writing library : libebml v1.4.2 + libmatroska v1.6.4

  14. Video

  15. ID : 1

  16. Format : HEVC

  17. Format/Info : High Efficiency Video Coding

  18. Format profile : Main 10@L5.1@High

  19. HDR format : SMPTE ST 2086, HDR10 compatible

  20. Codec ID : V_MPEGH/ISO/HEVC

  21. Duration : 1 h 37 min

  22. Bit rate : 13.4 Mb/s

  23. Width : 3 840 pixels

  24. Height : 2 076 pixels

  25. Display aspect ratio : 1.85:1

  26. Frame rate mode : Constant

  27. Frame rate : 23.976 (24000/1001/53354) FPS

  28. Color space : YUV

  29. Chroma subsampling : 4:2:0

  30. Bit depth : 10 bits

  31. Bits/(Pixel*Frame) : 0.070

  32. Stream size : 9.09 GiB (90%)

  33. Title : @HDSky

  34. Writing library : x265 - H.265/HEVC codec

  35. Default : Yes

  36. Forced : No

  37. Color range : Limited

  38. Color primaries : BT.2020

  39. Transfer characteristics : PQ

  40. Matrix coefficients : BT.2020 non-constant

  41. Mastering display color primaries : Display P3

  42. Mastering display luminance : min: 0.0020 cd/m2, max: 1000 cd/m2

  43. Maximum Content Light Level : 739 cd/m2

  44. Maximum Frame-Average Light Level : 331 cd/m2

  45. Audio

  46. ID : 2

  47. Format : DTS

  48. Format/Info : Digital Theater Systems

  49. Codec ID : A_DTS

  50. Duration : 1 h 37 min

  51. Bit rate mode : Constant

  52. Bit rate : 1 509 kb/s

  53. Channel(s) : 6 channels

  54. Channel layout : C L R Ls Rs LFE

  55. Sampling rate : 48.0 kHz

  56. Frame rate : 93.750 FPS (512 SPF)

  57. Bit depth : 24 bits

  58. Compression mode : Lossy

  59. Stream size : 1.03 GiB (10%)

  60. Title : English

  61. Language : English

  62. Default : Yes

  63. Forced : No

  64. Text #1

  65. ID : 3

  66. Format : PGS

  67. Muxing mode : zlib

  68. Codec ID : S_HDMV/PGS

  69. Codec ID/Info : Picture based subtitle format used on BDs/HD-DVDs

  70. Duration : 1 h 36 min

  71. Bit rate : 26.1 kb/s

  72. Count of elements : 1740

  73. Stream size : 18.1 MiB (0%)

  74. Title : CHS

  75. Language : Chinese

  76. Default : Yes

  77. Forced : No

  78. Text #2

  79. ID : 4

  80. Format : PGS

  81. Muxing mode : zlib

  82. Codec ID : S_HDMV/PGS

  83. Codec ID/Info : Picture based subtitle format used on BDs/HD-DVDs

  84. Duration : 1 h 36 min

  85. Bit rate : 26.9 kb/s

  86. Count of elements : 1740

  87. Stream size : 18.6 MiB (0%)

  88. Title : CHT

  89. Language : Chinese

  90. Default : Yes

  91. Forced : No

  92. Menu

  93. 00:00:00.000 : en:第 01 章

  94. 00:06:47.531 : en:第 02 章

  95. 00:11:29.772 : en:第 03 章

  96. 00:17:20.748 : en:第 04 章

  97. 00:24:51.239 : en:第 05 章

  98. 00:31:26.718 : en:第 06 章

  99. 00:37:40.967 : en:第 07 章

  100. 00:42:57.739 : en:第 08 章

  101. 00:47:57.666 : en:第 09 章

  102. 00:54:51.246 : en:第 10 章

  103. 00:58:52.487 : en:第 11 章

  104. 01:01:23.429 : en:第 12 章

  105. 01:06:26.273 : en:第 13 章

  106. 01:09:14.942 : en:第 14 章

  107. 01:15:17.930 : en:第 15 章

  108. 01:22:09.881 : en:第 16 章

  109. 01:28:45.694 : en:第 17 章

  110. 01:33:42.617 : en:第 18 章


复制代码


TAGS 恐怖 爱情 /

磁力链:
  • magnet:?xt=urn:btih:3259E92823A8BD0B4FF56391C154164878C0C561
上传的附件:
BT9527电影天堂 1、BT9527电影天堂提供的BT文件均来源于互联网抓取,只供网友学习交流、技术提升使用。
2、我们遵守BitTorrent点对点协议原则,任何版权问题请联系原资源发布商,我们不处理任何版权纠纷,谢谢!如有争议请联系邮箱:BT9527#hotmail.com(#换成@)
3、如果您发现某页面或地址有错误,请联系站长邮箱BT9527#hotmail.com(#换成@),我们会尽快处理。您的热心是对BT9527电影天堂最大的支持。
4、本站建议去正规影院观看电影以支持电影行业发展。
最新回复 (0)

你可以在 登录 or 注册 后,对此帖发表评论!

返回
发新帖