巴霍巴利王2:终结[中英字幕].Baahubali.2.The.Conclusion.2017.BluRay.1080p.x265.10bit-MiniHD 8.24GB

版主小s 24天前 102

◎译 名 巴霍巴利王2:终结 / 巴霍巴利王(下) / 巴霍巴利王(下):终结 / 巴霍巴利王:磅礴终章(台) / 巴霍巴利王2 / 巴霍巴利王:结局 / Baahubali: Part II / Baahubali: The Conclusion

◎片 名 Baahubali 2: The Conclusion

◎年 代 2017

◎产 地 印度

◎类 别 剧情 / 动作 / 奇幻

◎语 言 泰卢固语 / 泰米尔语 / 印地语 / 马拉雅拉姆语

◎上映日期 2018-05-04(中国大陆) / 2017-04-28(印度)

◎IMDb链接 https://www.imdb.com/title/tt4849438/

◎豆瓣评分 7.1/10 (47342人评价)

◎豆瓣链接 https://movie.douban.com/subject/26420932/

◎片 长 167分钟

◎导 演 S·S·拉贾穆里 S.S. Rajamouli (id:1325290)

◎编 剧 曼孔布·戈帕拉克里希南 Mankombu Gopalakrishnan (id:1372977)

马德汉·卡尔基 Madhan Karky (id:1339216)

C·H·维杰·库马尔 C.H. Vijay Kumar (id:1350822)

马努杰·芒塔希尔 Manoj Muntashir (id:1350824)

维杰耶德拉·普拉萨德 Vijayendra Prasad (id:1350821)

S·S·拉贾穆里 S.S. Rajamouli (id:1325290)

◎演 员 帕拉巴斯 Prabhas (id:1337710)

拉纳·达格巴提 Rana Daggubati (id:1350818)

安努舒卡·谢蒂 Anushka Shetty (id:1229458)

特曼娜·芭蒂亚 Tamannaah Bhatia (id:1182849)

萨伯拉杰 Subbaraju (id:1372981)

拉姆亚·克里希南 Ramya Krishnan (id:1350819)

纳赛尔 Nassar (id:1128581)

萨嘉拉吉 Satyaraj (id:1142539)

苏迪普 Sudeep (id:1325280)

普拉珊蒂·蒂皮里内尼 Prashanti Tipirineni (id:1386938)

拉马·拉贾牟里 Rama Rajamouli (id:1386937)

安库·萨契德夫 Ankur Sachdev (id:1386951)

◎简 介

在旷日持久的大战结束之后,巴霍巴利(帕拉巴斯 Prabhas 饰)最终凭借着他的骁勇善战获得了太后希瓦伽米(拉姆亚·克里希南 Ramya Krishnan 饰)的垂青,太后决定立他为王储,但是,在登基之前,巴霍巴利必须游历他所拥有的国土,学习如何成为一名开明睿智的君主。与此同时,太后还必须小心的平衡巴霍巴利和自己的亲生孩子巴拉拉德夫德斯(拉纳·达格巴提 Rana Daggubati 饰)之间的微妙关系。

在经过一个名叫昆达拉的诸侯国时,巴霍巴利邂逅了名为提婆犀那(安努舒卡·谢蒂 Anushka Shetty 饰)的公主,英姿飒爽的公主一下子就俘获了巴霍巴利的心。在将军卡塔帕(挲塞亚拉杰 Satyaraj 饰)的建议之下,巴霍巴利隐姓埋名开始接近公主,随着时间的推移,两颗心渐渐靠近。

◎获奖情况 (共2项)

第12届亚洲电影大奖 (2018)

最佳造型设计(提名)

最佳视觉效果(提名)

└──安库·萨契德夫 (id:1386951)

  1. ##### MediaInfo ######

  2. General

  3. Unique ID : 187592397261926719380767044455683608214 (0x8D20FB4510E3748FB5F4060135C44E96)

  4. Complete name : Baahubali.2.The.Conclusion.2017.BluRay.1080p.x265.10bit-MiniHD.mkv

  5. Format : Matroska

  6. Format version : Version 4

  7. File size : 8.23 GiB

  8. Duration : 2 h 47 min

  9. Overall bit rate : 7 049 kb/s

  10. Encoded date : UTC 2017-08-03 11:37:51

  11. Writing application : mkvmerge v11.0.0 ('Alive') 64bit

  12. Writing library : libebml v1.3.4 + libmatroska v1.4.5

  13. Video

  14. ID : 1

  15. Format : HEVC

  16. Format/Info : High Efficiency Video Coding

  17. Codec ID : V_MPEGH/ISO/HEVC

  18. Duration : 2 h 47 min

  19. Bit rate : 6 269 kb/s

  20. Width : 1 920 pixels

  21. Height : 804 pixels

  22. Display aspect ratio : 2.40:1

  23. Frame rate mode : Constant

  24. Frame rate : 24.000 FPS

  25. Bits/(Pixel*Frame) : 0.169

  26. Stream size : 7.32 GiB (89%)

  27. Default : Yes

  28. Forced : No

  29. Audio

  30. ID : 2

  31. Format : AC-3

  32. Format/Info : Audio Coding 3

  33. Commercial name : Dolby Digital

  34. Codec ID : A_AC3

  35. Duration : 2 h 47 min

  36. Bit rate mode : Constant

  37. Bit rate : 640 kb/s

  38. Channel(s) : 6 channels

  39. Channel layout : L R C LFE Ls Rs

  40. Sampling rate : 48.0 kHz

  41. Frame rate : 31.250 FPS (1536 SPF)

  42. Compression mode : Lossy

  43. Stream size : 766 MiB (9%)

  44. Language : Hindi

  45. Service kind : Complete Main

  46. Default : Yes

  47. Forced : No

  48. Text #1

  49. ID : 3

  50. Format : PGS

  51. Muxing mode : zlib

  52. Codec ID : S_HDMV/PGS

  53. Codec ID/Info : Picture based subtitle format used on BDs/HD-DVDs

  54. Language : English

  55. Default : Yes

  56. Forced : No

  57. Text #2

  58. ID : 4

  59. Format : PGS

  60. Muxing mode : zlib

  61. Codec ID : S_HDMV/PGS

  62. Codec ID/Info : Picture based subtitle format used on BDs/HD-DVDs

  63. Language : Chinese

  64. Default : No

  65. Forced : No

  66. Text #3

  67. ID : 5

  68. Format : PGS

  69. Muxing mode : zlib

  70. Codec ID : S_HDMV/PGS

  71. Codec ID/Info : Picture based subtitle format used on BDs/HD-DVDs

  72. Language : Chinese

  73. Default : No

  74. Forced : No

  75. Text #4

  76. ID : 6

  77. Format : PGS

  78. Muxing mode : zlib

  79. Codec ID : S_HDMV/PGS

  80. Codec ID/Info : Picture based subtitle format used on BDs/HD-DVDs

  81. Language : Chinese

  82. Default : No

  83. Forced : No

  84. Text #5

  85. ID : 7

  86. Format : PGS

  87. Muxing mode : zlib

  88. Codec ID : S_HDMV/PGS

  89. Codec ID/Info : Picture based subtitle format used on BDs/HD-DVDs

  90. Language : Chinese

  91. Default : No

  92. Forced : No

  93. Text #6

  94. ID : 8

  95. Format : PGS

  96. Muxing mode : zlib

  97. Codec ID : S_HDMV/PGS

  98. Codec ID/Info : Picture based subtitle format used on BDs/HD-DVDs

  99. Language : Chinese

  100. Default : No

  101. Forced : No

  102. Text #7

  103. ID : 9

  104. Format : PGS

  105. Muxing mode : zlib

  106. Codec ID : S_HDMV/PGS

  107. Codec ID/Info : Picture based subtitle format used on BDs/HD-DVDs

  108. Language : Chinese

  109. Default : No

  110. Forced : No

  111. Menu

  112. 00:00:00.000 : en:Chapter 01

  113. 00:02:42.375 : en:Chapter 02

  114. 00:05:11.458 : en:Chapter 03

  115. 00:08:24.458 : en:Chapter 04

  116. 00:16:41.541 : en:Chapter 05

  117. 00:30:31.791 : en:Chapter 06

  118. 00:39:21.791 : en:Chapter 07

  119. 00:42:57.500 : en:Chapter 08

  120. 00:46:24.541 : en:Chapter 09

  121. 00:51:02.416 : en:Chapter 10

  122. 01:07:36.416 : en:Chapter 11

  123. 01:11:51.041 : en:Chapter 12

  124. 01:18:27.875 : en:Chapter 13

  125. 01:27:20.000 : en:Chapter 14

  126. 01:38:15.333 : en:Chapter 15

  127. 01:43:27.416 : en:Chapter 16

  128. 01:51:08.166 : en:Chapter 17

  129. 02:01:31.000 : en:Chapter 18

  130. 02:13:27.833 : en:Chapter 19

  131. 02:39:25.250 : en:Chapter 20


复制代码


TAGS 动作 奇幻 剧情 /

磁力链:
  • magnet:?xt=urn:btih:CC6ABB5516D7CB710912F88E87A6F15AE187FD53
上传的附件:
BT9527电影天堂 1、BT9527电影天堂提供的BT文件均来源于互联网抓取,只供网友学习交流、技术提升使用。
2、我们遵守BitTorrent点对点协议原则,任何版权问题请联系原资源发布商,我们不处理任何版权纠纷,谢谢!如有争议请联系邮箱:BT9527#hotmail.com(#换成@)
3、如果您发现某页面或地址有错误,请联系站长邮箱BT9527#hotmail.com(#换成@),我们会尽快处理。您的热心是对BT9527电影天堂最大的支持。
4、本站建议去正规影院观看电影以支持电影行业发展。
最新回复 (0)

你可以在 登录 or 注册 后,对此帖发表评论!

返回
发新帖