巴霍巴利王:开端[中英字幕].Baahubali.The.Beginning.2015.BluRay.1080p.x265.10bit-MiniHD 8.60GB

版主小s 1月前 109

◎译 名 巴霍巴利王:开端 / 巴霍巴利王(上) / 巴霍巴利王(上):开端 / 巴霍巴利王:创始之初(台) / 帝国战神:巴霍巴利王(台) / Baahubali / Baahubali: Part I

◎片 名 Baahubali: The Beginning

◎年 代 2015

◎产 地 印度

◎类 别 剧情 / 动作 / 奇幻

◎语 言 泰卢固语 / 泰米尔语 / 印地语 / 马拉雅拉姆语

◎上映日期 2016-07-22(中国大陆) / 2015-07-10(印度)

◎IMDb链接 https://www.imdb.com/title/tt2631186/

◎豆瓣评分 7.5/10 (52923人评价)

◎豆瓣链接 https://movie.douban.com/subject/25753326/

◎片 长 129分钟(中国大陆)

◎导 演 S·S·拉贾穆里 S.S. Rajamouli (id:1325290)

◎编 剧 维杰耶德拉·普拉萨德 Vijayendra Prasad (id:1350821)

S·S·拉贾穆里 S.S. Rajamouli (id:1325290)

C·H·维杰·库马尔 C.H. Vijay Kumar (id:1350822)

阿贾·库马尔 Ajay Kumar (id:1350823)

马德汉·卡尔基 Madhan Karky (id:1339216)

马努杰·芒塔希尔 Manoj Muntashir (id:1350824)

Ajay Kumar Ajay Kumar (id:1308795)

◎演 员 帕拉巴斯 Prabhas (id:1337710)

拉纳·达格巴提 Rana Daggubati (id:1350818)

特曼娜·芭蒂亚 Tamannaah Bhatia (id:1182849)

拉姆亚·克里希南 Ramya Krishnan (id:1350819)

安努舒卡·谢蒂 Anushka Shetty (id:1229458)

纳赛尔 Nassar (id:1128581)

萨嘉拉吉 Satyaraj (id:1142539)

塔尼克拉·巴拉尼 Tanikella Bharani (id:1350820)

苏迪普 Sudeep (id:1325280)

罗希尼 Rohini (id:1359446)

S·S·拉贾穆里 S.S. Rajamouli (id:1325290)

特丽莎·克里希南 Trisha Krishnan (id:1222381)

诺拉·法泰希 Nora Fatehi (id:1428394)

阿迪维·赛什 Adivi Sesh (id:1441074)

◎简 介

故事发生在一个名为摩喜施末底的王国之中,激烈的王位争夺之战正在巴霍巴利(帕拉巴斯 Prabhas 饰)和巴哈拉拉德瓦(拉纳·达格巴帝 Rana Daggubati 饰)之间如火如荼的展开着。巴霍巴利为人正直而勇敢,坚信要凭借自己的真正实力夺得王位,而巴哈拉拉德瓦却恰恰相反,为了得到想要的东西,阴险狡猾的他愿意不择手段。

最终,代表着正义的巴霍巴利成为了国王,然而,巴哈拉拉德瓦却实行了暗杀行动,谋权篡位。巴霍巴利的儿子流落民间,被善良的人家收养取名为希瓦(帕拉巴斯 Prabhas 饰)。成人之后,希瓦得知了自己的身世,得知了自己体内流淌着皇家的血脉,他决定推翻统治者的暴政,夺回属于他的王位。

◎获奖情况 (共1项)

第10届亚洲电影大奖 (2016)

最佳视觉效果(提名)

└──斯瑞尼瓦斯·莫汉 (id:1370743)

  1. ##### MediaInfo ######

  2. General

  3. Unique ID : 229790719131880871829156599786952600265 (0xACE0152B4ACDF493BC58B9C49A6A2AC9)

  4. Complete name : Baahubali.The.Beginning.2015.BluRay.1080p.x265.10bit-MiniHD.mkv

  5. Format : Matroska

  6. Format version : Version 4

  7. File size : 8.60 GiB

  8. Duration : 2 h 39 min

  9. Overall bit rate : 7 725 kb/s

  10. Encoded date : UTC 2017-05-12 02:49:14

  11. Writing application : mkvmerge v11.0.0 ('Alive') 64bit

  12. Writing library : libebml v1.3.4 + libmatroska v1.4.5

  13. Video

  14. ID : 1

  15. Format : HEVC

  16. Format/Info : High Efficiency Video Coding

  17. Codec ID : V_MPEGH/ISO/HEVC

  18. Duration : 2 h 39 min

  19. Bit rate : 7 067 kb/s

  20. Width : 1 920 pixels

  21. Height : 826 pixels

  22. Display aspect ratio : 2.35:1

  23. Frame rate mode : Constant

  24. Frame rate : 24.000 FPS

  25. Bits/(Pixel*Frame) : 0.186

  26. Stream size : 7.87 GiB (91%)

  27. Default : Yes

  28. Forced : No

  29. Audio

  30. ID : 2

  31. Format : AC-3

  32. Format/Info : Audio Coding 3

  33. Commercial name : Dolby Digital

  34. Codec ID : A_AC3

  35. Duration : 2 h 39 min

  36. Bit rate mode : Constant

  37. Bit rate : 640 kb/s

  38. Channel(s) : 6 channels

  39. Channel layout : L R C LFE Ls Rs

  40. Sampling rate : 48.0 kHz

  41. Frame rate : 31.250 FPS (1536 SPF)

  42. Compression mode : Lossy

  43. Stream size : 730 MiB (8%)

  44. Language : Hindi

  45. Service kind : Complete Main

  46. Default : Yes

  47. Forced : No

  48. Text #1

  49. ID : 3

  50. Format : PGS

  51. Muxing mode : zlib

  52. Codec ID : S_HDMV/PGS

  53. Codec ID/Info : Picture based subtitle format used on BDs/HD-DVDs

  54. Duration : 2 h 32 min

  55. Bit rate : 9 194 b/s

  56. Count of elements : 1871

  57. Stream size : 10.0 MiB (0%)

  58. Language : English

  59. Default : Yes

  60. Forced : No

  61. Text #2

  62. ID : 4

  63. Format : PGS

  64. Muxing mode : zlib

  65. Codec ID : S_HDMV/PGS

  66. Codec ID/Info : Picture based subtitle format used on BDs/HD-DVDs

  67. Duration : 2 h 36 min

  68. Bit rate : 3 195 b/s

  69. Count of elements : 1972

  70. Stream size : 3.58 MiB (0%)

  71. Language : Chinese

  72. Default : No

  73. Forced : No

  74. Text #3

  75. ID : 5

  76. Format : PGS

  77. Muxing mode : zlib

  78. Codec ID : S_HDMV/PGS

  79. Codec ID/Info : Picture based subtitle format used on BDs/HD-DVDs

  80. Duration : 2 h 36 min

  81. Bit rate : 3 360 b/s

  82. Count of elements : 1972

  83. Stream size : 3.77 MiB (0%)

  84. Language : Chinese

  85. Default : No

  86. Forced : No


复制代码


TAGS 动作 奇幻 剧情 /

磁力链:
  • magnet:?xt=urn:btih:518F95CEF6071CCED91ED601069159F289761B25
上传的附件:
BT9527电影天堂 1、BT9527电影天堂提供的BT文件均来源于互联网抓取,只供网友学习交流、技术提升使用。
2、我们遵守BitTorrent点对点协议原则,任何版权问题请联系原资源发布商,我们不处理任何版权纠纷,谢谢!如有争议请联系邮箱:BT9527#hotmail.com(#换成@)
3、如果您发现某页面或地址有错误,请联系站长邮箱BT9527#hotmail.com(#换成@),我们会尽快处理。您的热心是对BT9527电影天堂最大的支持。
4、本站建议去正规影院观看电影以支持电影行业发展。
最新回复 (0)

你可以在 登录 or 注册 后,对此帖发表评论!

返回
发新帖