山楂树之恋[国语音轨/中文字幕].Under.the.Hawthorn.Tree.2010.BluRay.1080p.x265.10bit-MiniHD 4.33GB

版主小s 4月前 226

◎译 名 山楂树之恋 / 山楂树 / Under the Hawthorn Tree

◎年 代 2010

◎产 地 中国大陆

◎类 别 剧情 / 爱情

◎语 言 汉语普通话

◎上映日期 2010-09-16(中国大陆)

◎IMDb链接 https://www.imdb.com/title/tt1554523/

◎豆瓣评分 7.1/10 (315459人评价)

◎豆瓣链接 https://movie.douban.com/subject/4151110/

◎片 长 114分钟

◎导 演 张艺谋 Yimou Zhang (id:1054398)

◎编 剧 尹丽川 Lichuan Yin (id:1274239)

顾小白 Xiaobai Gu (id:1320930)

阿美 A Mei (id:1323030)

艾米 Mi Ai (id:1323029)

肖克凡 Kefan Xiao (id:1379651)

◎演 员 周冬雨 Dongyu Zhou (id:1274224)

窦骁 Shawn Dou (id:1274225)

奚美娟 Meijuan Xi (id:1001714)

李雪健 Xuejian Li (id:1274233)

姜瑞佳 Ruijia Jiang (id:1275650)

于新博 Xinbo Yu (id:1275399)

萨日娜 Rina Sa (id:1274702)

成泰燊 Taishen Cheng (id:1196361)

吕丽萍 Liping Lü (id:1121101)

孙海英 Haiying Sun (id:1274237)

王劲松 Jinsong Wang (id:1315687)

贺小语 Xiaoyu He (id:1379652)

易歆韵 Xinyun Yi (id:1379648)

裘慕远 Muyuan Qiu (id:1323487)

胡馨元 Xinyuan Hu (id:1379653)

李庆 Qing Li (id:1379654)

陈星旭 Xingxu Chen (id:1366884)

白小妍 Xiaoyan Bai (id:1406328)

宋睿 Rui Song (id:1329270)

幺依田 Yitian Yao (id:1353457)

曹华益 Huayi Cao (id:1379649)

熊晓鸽 Hugo Shong (id:1379650)

黄新明 Xinming Huang (id:1316674)

张伟平 Weiping Zhang (id:1301698)

陈美静 Meijing Chen (id:1406323)

江志强 William Kong (id:1288870)

陈其钢 Qigang Chen (id:1316672)

谢天翔 Tianxiang Xie (id:1371076)

白小妍 Xiaoyan Bai (id:1406328)

赵小丁 Xiaoding Zhao (id:1274347)

孟佩璁 Peicong Meng (id:1316673)

张末 Mo Zhang (id:1329527)

武明 Ming Wu (id:1379290)

马德帆 Defan Ma (id:1332266)

梁郁 Yu Liang (id:1442414)

臧溪川 Xichuan Zang (id:1328672)

付璐璐 Lulu Fu (id:1401800)

李庆 Qing Li (id:1379654)

张末 Mo Zhang (id:1329527)

周正飞 Zhengfei Zhou (id:1406334)

冀红芮 Hongrui Ji (id:1311587)

陶经 Jing Tao (id:1298913)

何威 Wei He (id:1304355)

孙秋霞 Qiuxia Sun (id:1311580)

◎简 介

<a href="https://www.douban.com/link2/?url=http%3A%2F%2Fsite.douban.com%2F106309%2F">http://site.douban.c<wbr/>om/106309/</a> 山楂树之恋豆瓣小站

20世纪70年代初,响应毛主席号召,知识青年上山下乡。老师(成泰燊 饰)带着教育革命实践小组来到西坪村采风编教材。高中生静秋(周冬雨 饰)被安排在老村长(李雪健 饰)家,村长媳妇(萨日娜 饰)介绍情况时,提到了一个名叫老三(窦骁 饰)的小伙子。他是地质勘探队成员,平日作业,很少回家。静秋对老三很好奇,终于两人相见,以山楂树为话题,袒露心扉,互有好感。老三送她钢笔,陪她解忧,慢慢两人暗生情愫。但静秋返城时,听到老三有女友的传闻,态度骤冷。静秋的父亲被打成右派,母亲(奚美娟 饰)在劳动改造,她和弟弟妹妹课余帮母亲糊信封,生活很艰苦。为了能留校,静秋还要辛勤打工。被误会的老三,只得暗暗想方设法帮助静秋,直到两人重归于好。但他们的事被静秋的母亲撞见了。为了静秋的前途,老三在逼迫...

◎获奖情况 (共7项)

第61届柏林国际电影节 (2011)

新生代青年单元 最佳影片(提名)

└──张艺谋 (id:1054398)

第30届香港电影金像奖 (2011)

最佳亚洲电影(提名)

第14届中国电影华表奖 (2011)

优秀故事片奖

优秀新人女演员奖

└──周冬雨 (id:1274224)

优秀境外华裔男演员奖(提名)

└──窦骁 (id:1274225)

第5届亚洲电影大奖 (2011)

最佳新演员(提名)

└──周冬雨 (id:1274224)

最佳剪接(提名)

└──孟佩璁 (id:1316673)

  1. ##### MediaInfo ######

  2. General

  3. Unique ID : 220442924311509591455537495892699760647 (0xA5D7C34D26AF386AAFCA4FC013B5C807)

  4. Complete name : Under.the.Hawthorn.Tree.2010.BluRay.1080p.x265.10bit-MiniHD.mkv

  5. Format : Matroska

  6. Format version : Version 4

  7. File size : 4.33 GiB

  8. Duration : 1 h 55 min

  9. Overall bit rate : 5 379 kb/s

  10. Encoded date : UTC 2017-06-01 14:33:12

  11. Writing application : mkvmerge v11.0.0 ('Alive') 64bit

  12. Writing library : libebml v1.3.4 + libmatroska v1.4.5

  13. Video

  14. ID : 1

  15. Format : HEVC

  16. Format/Info : High Efficiency Video Coding

  17. Codec ID : V_MPEGH/ISO/HEVC

  18. Duration : 1 h 55 min

  19. Bit rate : 4 632 kb/s

  20. Width : 1 920 pixels

  21. Height : 816 pixels

  22. Display aspect ratio : 2.35:1

  23. Frame rate mode : Constant

  24. Frame rate : 23.976 (24000/1001/53354) FPS

  25. Bits/(Pixel*Frame) : 0.123

  26. Stream size : 3.73 GiB (86%)

  27. Default : Yes

  28. Forced : No

  29. Audio

  30. ID : 2

  31. Format : AC-3

  32. Format/Info : Audio Coding 3

  33. Commercial name : Dolby Digital

  34. Codec ID : A_AC3

  35. Duration : 1 h 55 min

  36. Bit rate mode : Constant

  37. Bit rate : 640 kb/s

  38. Channel(s) : 6 channels

  39. Channel layout : L R C LFE Ls Rs

  40. Sampling rate : 48.0 kHz

  41. Frame rate : 31.250 FPS (1536 SPF)

  42. Compression mode : Lossy

  43. Stream size : 528 MiB (12%)

  44. Language : Chinese

  45. Service kind : Complete Main

  46. Default : Yes

  47. Forced : No

  48. Text #1

  49. ID : 3

  50. Format : PGS

  51. Muxing mode : zlib

  52. Codec ID : S_HDMV/PGS

  53. Codec ID/Info : Picture based subtitle format used on BDs/HD-DVDs

  54. Language : Chinese

  55. Default : Yes

  56. Forced : No

  57. Text #2

  58. ID : 4

  59. Format : PGS

  60. Muxing mode : zlib

  61. Codec ID : S_HDMV/PGS

  62. Codec ID/Info : Picture based subtitle format used on BDs/HD-DVDs

  63. Language : Chinese

  64. Default : No

  65. Forced : No

  66. Menu

  67. 00:00:00.000 : en:Chapter 01

  68. 00:06:03.780 : en:Chapter 02

  69. 00:12:25.453 : en:Chapter 03

  70. 00:23:34.913 : en:Chapter 04

  71. 00:28:24.327 : en:Chapter 05

  72. 00:34:27.565 : en:Chapter 06

  73. 00:42:07.358 : en:Chapter 07

  74. 00:49:56.243 : en:Chapter 08

  75. 01:04:15.643 : en:Chapter 09

  76. 01:12:25.299 : en:Chapter 10

  77. 01:25:58.403 : en:Chapter 11

  78. 01:29:26.778 : en:Chapter 12

  79. 01:33:40.489 : en:Chapter 13

  80. 01:38:38.913 : en:Chapter 14

  81. 01:42:40.404 : en:Chapter 15

  82. 01:53:47.403 : en:Chapter 16


复制代码


TAGS 剧情 爱情 /

磁力链:
  • magnet:?xt=urn:btih:F48D531FB6F58701CCC10689E1D57B4D3D6FC16C
上传的附件:
BT9527电影天堂 1、BT9527电影天堂提供的BT文件均来源于互联网抓取,只供网友学习交流、技术提升使用。
2、我们遵守BitTorrent点对点协议原则,任何版权问题请联系原资源发布商,我们不处理任何版权纠纷,谢谢!如有争议请联系邮箱:BT9527#hotmail.com(#换成@)
3、如果您发现某页面或地址有错误,请联系站长邮箱BT9527#hotmail.com(#换成@),我们会尽快处理。您的热心是对BT9527电影天堂最大的支持。
4、本站建议去正规影院观看电影以支持电影行业发展。
最新回复 (0)

你可以在 登录 or 注册 后,对此帖发表评论!

返回
发新帖