小岛惊魂[国英多音轨/中英字幕].The.Others.2001.BluRay.1080p.x265.10bit.2Audio-MiniHD 3.82GB

版主小s 4月前 326

◎译 名 小岛惊魂 / 不速之吓(港) / 神鬼第六感(台)

◎片 名 The Others

◎年 代 2001

◎产 地 美国 / 西班牙 / 法国 / 意大利

◎类 别 剧情 / 悬疑 / 恐怖

◎语 言 英语

◎上映日期 2001-08-10(美国)

◎IMDb链接 https://www.imdb.com/title/tt0230600/

◎豆瓣评分 8.2/10 (261003人评价)

◎豆瓣链接 https://movie.douban.com/subject/1301459/

◎片 长 104分钟

◎导 演 亚历杭德罗·阿梅纳瓦尔 Alejandro Amenábar (id:1000176)

◎编 剧 亚历杭德罗·阿梅纳瓦尔 Alejandro Amenábar (id:1000176)

◎演 员 妮可·基德曼 Nicole Kidman (id:1054442)

菲奥纽拉·弗拉纳根 Fionnula Flanagan (id:1036526)

克里斯托弗·埃克莱斯顿 Christopher Eccleston (id:1006990)

阿拉济纳·曼恩 Alakina Mann (id:1126039)

詹姆斯·本特利 James Bentley (id:1301915)

埃里克·赛克斯 Eric Sykes (id:1048260)

伊莲·卡西迪 Elaine Cassidy (id:1013969)

勒妮·阿舍森 Renée Asherson (id:1056526)

戈登·雷德 Gordon Reid (id:1145439)

基思·艾伦 Keith Allen (id:1019138)

米歇尔·费尔利 Michelle Fairley (id:1314666)

保拉·瓦格纳 Paula Wagner (id:1036991)

埃米利亚诺·奥德吉 Emiliano Otegui (id:1293713)

汤姆·克鲁斯 Tom Cruise (id:1054435)

费尔南多·波瓦拉 Fernando Bovaira (id:1279083)

何塞·路易斯·奎尔达 José Luis Cuerda (id:1005338)

鲍伯·韦恩斯坦 Bob Weinstein (id:1300654)

朴宣旼 Sunmin Park (id:1298655)

米格尔·安吉尔·冈萨雷斯 Miguel ángel González (id:1008608)

Eduardo Chapero-Jackson Eduardo Chapero-Jackson (id:1302585)

哈维·韦恩斯坦 Harvey Weinstein (id:1054304)

亚历杭德罗·阿梅纳瓦尔 Alejandro Amenábar (id:1000176)

加维尔·阿吉雷撒罗贝 Javier Aguirresarobe (id:1028006)

Nacho Ruiz Capillas Nacho Ruiz Capillas (id:1296323)

吉娜·杰 Jina Jay (id:1395105)

Elli Griff Elli Griff (id:1285443)

Emilio Ardura Emilio Ardura (id:1277365)

本哈明·费勒南戴斯 Benjamín Fernández (id:1283598)

索尼娅·格兰德 Sonia Grande (id:1334111)

罗伯特·麦卡恩 Robert McCann (id:1291445)

贝伦·洛佩兹·普格瑟维 Belén López Puigcerver (id:1290547)

彼得·欧文 Peter Owen (id:1293760)

Mara Collazo Mara Collazo (id:1281043)

安娜·洛佩兹·普格瑟维 Ana López Puigcerver (id:1290545)

Teresa Rabal Teresa Rabal (id:1295091)

Luis Casacuberta Luis Casacuberta (id:1074465)

Rapha?l Kourilsky Rapha?l Kourilsky (id:1013371)

Simon Hughes Simon Hughes (id:1287119)

Félix Bergés Félix Bergés (id:1278448)

丹·阿什顿 Dan Ashton (id:1187304)

Pablo Nú?ez Pablo Nú?ez (id:1293358)

Carlos Martínez Carlos Martínez (id:1306098)

Eduardo Díaz Eduardo Díaz (id:1306209)

Antonio Ojeda Antonio Ojeda (id:1306215)

Ana Nu?ez Ana Nu?ez (id:1306218)

Rafa Solorzano Rafa Solorzano (id:1306224)

◎简 介

二战结束,格蕾丝(尼科尔?基德曼)在英伦的小岛上独自抚养着一对儿女,耐心等待着丈夫从战场归来。儿女怕光,受到光照会发病,因此家里的窗帘常年拉得严严实实。就在这样一间阴暗的古宅里,格蕾丝迎来了三个新仆人。这三个人到来之后,却让格蕾丝寒了心——窗帘经常被拉开,门无故打开,钢琴自动发声,而她的女儿说,在房间里经常可以见到陌生男人。格蕾丝陷入了精神紧张的状态,她不明白怪事为何屡屡发生,不明白丈夫为何迟迟未归。而她最后才醒悟,所有的惊恐,其实都来源自身,但是事情已经不可逆转……

◎获奖情况 (共2项)

第58届威尼斯电影节 (2001)

主竞赛单元 金狮奖 (提名)

└──亚历杭德罗·阿梅纳瓦尔 (id:1000176)

第59届金球奖 (2002)

电影类 剧情片最佳女主角(提名)

└──妮可·基德曼 (id:1054442)

  1. ##### MediaInfo ######

  2. General

  3. Unique ID : 197950318306571613216183728637295754780 (0x94EBD8349C18B704AD8924D71D947E1C)

  4. Complete name : The.Others.2001.BluRay.1080p.x265.10bit.2Audio-MiniHD.mkv

  5. Format : Matroska

  6. Format version : Version 4

  7. File size : 3.82 GiB

  8. Duration : 1 h 44 min

  9. Overall bit rate : 5 228 kb/s

  10. Encoded date : UTC 2017-09-13 04:14:51

  11. Writing application : mkvmerge v11.0.0 ('Alive') 64bit

  12. Writing library : libebml v1.3.4 + libmatroska v1.4.5

  13. Video

  14. ID : 1

  15. Format : HEVC

  16. Format/Info : High Efficiency Video Coding

  17. Codec ID : V_MPEGH/ISO/HEVC

  18. Duration : 1 h 44 min

  19. Bit rate : 4 343 kb/s

  20. Width : 1 920 pixels

  21. Height : 1 080 pixels

  22. Display aspect ratio : 16:9

  23. Frame rate mode : Constant

  24. Frame rate : 23.976 (24000/1001/53354) FPS

  25. Bits/(Pixel*Frame) : 0.087

  26. Stream size : 3.17 GiB (83%)

  27. Default : Yes

  28. Forced : No

  29. Audio #1

  30. ID : 2

  31. Format : AC-3

  32. Format/Info : Audio Coding 3

  33. Commercial name : Dolby Digital

  34. Codec ID : A_AC3

  35. Duration : 1 h 44 min

  36. Bit rate mode : Constant

  37. Bit rate : 640 kb/s

  38. Channel(s) : 6 channels

  39. Channel layout : L R C LFE Ls Rs

  40. Sampling rate : 48.0 kHz

  41. Frame rate : 31.250 FPS (1536 SPF)

  42. Compression mode : Lossy

  43. Stream size : 478 MiB (12%)

  44. Language : English

  45. Service kind : Complete Main

  46. Default : Yes

  47. Forced : No

  48. Audio #2

  49. ID : 3

  50. Format : AC-3

  51. Format/Info : Audio Coding 3

  52. Commercial name : Dolby Digital

  53. Codec ID : A_AC3

  54. Duration : 1 h 44 min

  55. Bit rate mode : Constant

  56. Bit rate : 192 kb/s

  57. Channel(s) : 2 channels

  58. Channel layout : L R

  59. Sampling rate : 48.0 kHz

  60. Frame rate : 31.250 FPS (1536 SPF)

  61. Compression mode : Lossy

  62. Delay relative to video : 14 s 300 ms

  63. Stream size : 143 MiB (4%)

  64. Language : Chinese

  65. Service kind : Complete Main

  66. Default : No

  67. Forced : No

  68. Text #1

  69. ID : 4

  70. Format : PGS

  71. Muxing mode : zlib

  72. Codec ID : S_HDMV/PGS

  73. Codec ID/Info : Picture based subtitle format used on BDs/HD-DVDs

  74. Duration : 1 h 39 min

  75. Bit rate : 20.1 kb/s

  76. Count of elements : 2452

  77. Stream size : 14.2 MiB (0%)

  78. Language : English

  79. Default : Yes

  80. Forced : No

  81. Text #2

  82. ID : 5

  83. Format : PGS

  84. Muxing mode : zlib

  85. Codec ID : S_HDMV/PGS

  86. Codec ID/Info : Picture based subtitle format used on BDs/HD-DVDs

  87. Duration : 1 h 39 min

  88. Bit rate : 22.2 kb/s

  89. Count of elements : 2840

  90. Stream size : 15.8 MiB (0%)

  91. Language : English

  92. Default : No

  93. Forced : No

  94. Text #3

  95. ID : 6

  96. Format : PGS

  97. Muxing mode : zlib

  98. Codec ID : S_HDMV/PGS

  99. Codec ID/Info : Picture based subtitle format used on BDs/HD-DVDs

  100. Duration : 1 h 39 min

  101. Bit rate : 11.8 kb/s

  102. Count of elements : 1701

  103. Stream size : 8.44 MiB (0%)

  104. Language : Chinese

  105. Default : No

  106. Forced : No

  107. Menu

  108. 00:00:00.000 : en:Chapter 01

  109. 00:07:33.286 : en:Chapter 02

  110. 00:11:58.509 : en:Chapter 03

  111. 00:14:40.212 : en:Chapter 04

  112. 00:20:21.136 : en:Chapter 05

  113. 00:25:30.028 : en:Chapter 06

  114. 00:29:39.986 : en:Chapter 07

  115. 00:36:12.044 : en:Chapter 08

  116. 00:42:14.907 : en:Chapter 09

  117. 00:46:54.937 : en:Chapter 10

  118. 00:53:57.734 : en:Chapter 11

  119. 00:59:09.837 : en:Chapter 12

  120. 01:02:55.730 : en:Chapter 13

  121. 01:09:58.777 : en:Chapter 14

  122. 01:21:40.645 : en:Chapter 15

  123. 01:34:44.428 : en:Chapter 16


复制代码


TAGS 剧情 恐怖 悬疑 /

磁力链:
  • magnet:?xt=urn:btih:4C0B3ED9858E15612880CA97ADDFDA46E849F040
上传的附件:
BT9527电影天堂 1、BT9527电影天堂提供的BT文件均来源于互联网抓取,只供网友学习交流、技术提升使用。
2、我们遵守BitTorrent点对点协议原则,任何版权问题请联系原资源发布商,我们不处理任何版权纠纷,谢谢!如有争议请联系邮箱:BT9527#hotmail.com(#换成@)
3、如果您发现某页面或地址有错误,请联系站长邮箱BT9527#hotmail.com(#换成@),我们会尽快处理。您的热心是对BT9527电影天堂最大的支持。
4、本站建议去正规影院观看电影以支持电影行业发展。
最新回复 (0)

你可以在 登录 or 注册 后,对此帖发表评论!

返回
发新帖