寻龙诀[国语音轨/中英字幕].Mojin.The.Lost.Legend.2015.IMAX.BluRay.1080p.x265.10bit-MiniHD 5.56GB

版主小s 4月前 260

◎译 名 寻龙诀 / 乌尔善版鬼吹灯 / 鬼吹灯之寻龙诀 / 鬼吹灯 / The Ghouls / Mojin - The Lost Legend

◎年 代 2015

◎产 地 中国大陆 / 中国香港

◎类 别 剧情 / 动作 / 奇幻 / 冒险

◎语 言 汉语普通话 / 英语 / 蒙古语 / 日语

◎上映日期 2015-12-18(中国大陆)

◎IMDb链接 https://www.imdb.com/title/tt4276752/

◎豆瓣评分 7.4/10 (568724人评价)

◎豆瓣链接 https://movie.douban.com/subject/3077412/

◎片 长 125分钟(中国大陆)

◎导 演 乌尔善 Wuershan (id:1275211)

◎编 剧 张家鲁 Chia-lu Chang (id:1274308)

天下霸唱 Muye Zhang (id:1340983)

◎演 员 陈坤 Kun Chen (id:1053618)

黄渤 Bo Huang (id:1274242)

舒淇 Qi Shu (id:1138320)

杨颖 Angelababy (id:1033011)

夏雨 Yu Xia (id:1041082)

刘晓庆 Xiaoqing Liu (id:1042637)

颜卓灵 Cherry Ngan (id:1318260)

曹操 Jonathan Kos-Read (id:1274972)

张东 Dong Zhang (id:1353569)

黄西 Joe Wong (id:1350680)

僧格仁钦 Senggerenqing (id:1353568)

刘頔 Natas Asoka (id:1343944)

刘琦 Mulligan liu (id:1398572)

汪晴 Qing Wang (id:1435222)

松田笃儿 Atsuji Matsuda (id:1449206)

冯伟力 Weili Feng (id:1356780)

基斯·科尔利 Keith Collea (id:1350660)

鲁佳妮 Jiani Lu (id:1403763)

魏小欢 Xiaohuan Wei (id:1381873)

朱洪振 Hongzhen Zhu (id:1356921)

钢特木尔 Gangtemuer (id:1407713)

董文洁 Jennifer Dong (id:1354232)

陈国富 Kuo-fu Chen (id:1075862)

董文洁 Jennifer Dong (id:1354232)

杨庭恺 Bernard Yang (id:1443208)

李飞 Figo Li (id:1415146)

曹晓北 Xiaobei Cao (id:1453465)

陶昆 Kun Tao (id:1354359)

王长田 Changtian Wang (id:1356370)

远藤浩二 K?ji End? (id:1330353)

朱镜伟 Ching-Wei Chu (id:1388704)

包翔宇 Nomura Shin (id:1399302)

李畅 Chang Li (id:1391304)

徐一鑫 Ethan Xu (id:1384057)

王宇 Yu Wang (id:1352980)

赵楠 Nan Zhao (id:1325307)

杨江 Jiang Yang (id:1351381)

李广飞 Guangfei Li (id:1457938)

Sam Khorshid Sam Khorshid (id:1378358)

刘松 Strilen Liu (id:1378359)

沈在元 Jea-won Shin (id:1325150)

梁吉泳 Kil-Yong Yang (id:1325149)

崔桐侥 Tongyao Cui (id:1406502)

杜扬 Du Yang (id:1330983)

黄海 Hai Huang (id:1401245)

◎简 介

上世纪80年代末,胡八一(陈坤 饰)、王凯旋(黄渤 饰)与Shirley杨(舒淇 饰)在美国打算金盆洗手,本来叱咤风云的摸金校尉沦为街头小贩被移民局追得满街跑。就在此时,意外发现20年前死在草原上的初恋对象丁思甜(杨颖 饰)可能还活着,胡八一、王凯旋、Shirley杨决定再入草原千年古墓……

◎获奖情况 (共14项)

第53届台北金马影展 (2016)

金马奖 最佳动作设计(提名)

金马奖 最佳视觉效果

第33届大众电影百花奖 (2016)

最佳故事片(提名)

最佳导演

└──乌尔善 (id:1275211)

最佳女主角(提名)

└──舒淇 (id:1138320)

最佳男配角(提名)

└──夏雨 (id:1041082)

最佳女配角

└──杨颖 (id:1033011)

最佳新人(提名)

└──颜卓灵 (id:1318260)

第17届中国电影华表奖 (2018)

优秀故事片奖(提名)

第10届亚洲电影大奖 (2016)

最佳女配角(提名)

└──颜卓灵 (id:1318260)

第23届北京大学生电影节 (2016)

最佳编剧奖(提名)

└──张家鲁 (id:1274308)

最佳观赏效果奖

第3届豆瓣电影年度榜单 (2016)

1月最受关注电影(提名)

第2届豆瓣电影年度榜单 (2015)

12月最受关注电影(提名)

  1. ##### MediaInfo ######

  2. General

  3. Unique ID : 170527565273076192669306503421475993369 (0x804A6A181A6F9339B4D16AD4C3D8B719)

  4. Complete name : Mojin.The.Lost.Legend.2015.IMAX.BluRay.1080p.x265.10bit-MiniHD.mkv

  5. Format : Matroska

  6. Format version : Version 4

  7. File size : 5.56 GiB

  8. Duration : 2 h 5 min

  9. Overall bit rate : 6 349 kb/s

  10. Encoded date : UTC 2017-03-27 05:57:49

  11. Writing application : mkvmerge v9.7.1 ('Pandemonium') 64bit

  12. Writing library : libebml v1.3.4 + libmatroska v1.4.5

  13. Video

  14. ID : 1

  15. Format : HEVC

  16. Format/Info : High Efficiency Video Coding

  17. Format profile : Main 10@L4@Main

  18. Codec ID : V_MPEGH/ISO/HEVC

  19. Duration : 2 h 5 min

  20. Bit rate : 5 583 kb/s

  21. Width : 1 920 pixels

  22. Height : 1 036 pixels

  23. Display aspect ratio : 1.85:1

  24. Frame rate mode : Constant

  25. Frame rate : 23.976 (24000/1001/53354) FPS

  26. Color space : YUV

  27. Chroma subsampling : 4:2:0

  28. Bit depth : 10 bits

  29. Bits/(Pixel*Frame) : 0.117

  30. Stream size : 4.89 GiB (88%)

  31. Writing library : x265 2.3+24-a0eee4b41185:[Windows][GCC 6.3.0][64 bit] 10bit

  32. Encoding settings : cpuid=533541173503 / frame-threads=6 / numa-pools=36 / wpp / no-pmode / no-pme / no-psnr / no-ssim / log-level=2 / input-csp=1 / input-res=1920x1036 / interlace=0 / total-frames=180348 / level-idc=0 / high-tier=1 / uhd-bd=0 / ref=5 / no-allow-non-conformance / no-repeat-headers / annexb / no-aud / no-hrd / info / hash=0 / no-temporal-layers / no-open-gop / min-keyint=1 / keyint=360 / bframes=8 / b-adapt=2 / b-pyramid / bframe-bias=0 / rc-lookahead=60 / lookahead-slices=4 / NTMzNTQ=uuDQuD2mJt9fsCf / scenecut=40 / no-intra-refresh / ctu=32 / min-cu-size=8 / rect / no-amp / max-tu-size=16 / tu-inter-depth=2 / tu-intra-depth=2 / limit-tu=4 / rdoq-level=2 / dynamic-rd=0.00 / signhide / no-tskip / nr-intra=0 / nr-inter=0 / no-constrained-intra / no-strong-intra-smoothing / max-merge=3 / limit-refs=2 / limit-modes / me=3 / subme=5 / merange=25 / temporal-mvp / weightp / weightb / no-analyze-src-pics / deblock=-1:-1 / no-sao / no-sao-non-deblock / rd=4 / no-early-skip / rskip / no-fast-intra / no-tskip-fast / no-cu-lossless / b-intra / rdpenalty=1 / psy-rd=0.00 / psy-rdoq=5.00 / no-rd-refine / analysis-mode=0 / no-lossless / cbqpoffs=-2 / crqpoffs=-2 / rc=crf / crf=19.0 / qcomp=0.70 / qpstep=4 / stats-write=0 / stats-read=0 / ipratio=1.40 / pbratio=1.30 / aq-mode=3 / aq-strength=0.80 / cutree / zone-count=0 / no-strict-cbr / qg-size=16 / no-rc-grain / qpmax=69 / qpmin=0 / sar=0 / overscan=0 / videoformat=5 / range=0 / colorprim=1 / transfer=2 / colormatrix=2 / chromaloc=0 / display-window=0 / max-cll=0,0 / min-luma=0 / max-luma=1023 / log2-max-poc-lsb=8 / vui-timing-info / vui-hrd-info / slices=1 / opt-qp-pps / opt-ref-list-length-pps / no-multi-pass-opt-rps / scenecut-bias=0.05 / no-opt-cu-delta-qp / no-aq-motion / no-hdr / no-hdr-opt / refine-level=5

  33. Default : Yes

  34. Forced : No

  35. Color range : Limited

  36. Color primaries : BT.709

  37. Audio

  38. ID : 2

  39. Format : AC-3

  40. Format/Info : Audio Coding 3

  41. Commercial name : Dolby Digital

  42. Codec ID : A_AC3

  43. Duration : 2 h 5 min

  44. Bit rate mode : Constant

  45. Bit rate : 640 kb/s

  46. Channel(s) : 6 channels

  47. Channel layout : L R C LFE Ls Rs

  48. Sampling rate : 48.0 kHz

  49. Frame rate : 31.250 FPS (1536 SPF)

  50. Compression mode : Lossy

  51. Stream size : 574 MiB (10%)

  52. Language : Chinese

  53. Service kind : Complete Main

  54. Default : Yes

  55. Forced : No

  56. Text #1

  57. ID : 3

  58. Format : PGS

  59. Muxing mode : zlib

  60. Codec ID : S_HDMV/PGS

  61. Codec ID/Info : Picture based subtitle format used on BDs/HD-DVDs

  62. Language : Chinese

  63. Default : Yes

  64. Forced : No

  65. Text #2

  66. ID : 4

  67. Format : PGS

  68. Muxing mode : zlib

  69. Codec ID : S_HDMV/PGS

  70. Codec ID/Info : Picture based subtitle format used on BDs/HD-DVDs

  71. Language : Chinese

  72. Default : No

  73. Forced : No

  74. Text #3

  75. ID : 5

  76. Format : PGS

  77. Muxing mode : zlib

  78. Codec ID : S_HDMV/PGS

  79. Codec ID/Info : Picture based subtitle format used on BDs/HD-DVDs

  80. Language : Chinese

  81. Default : No

  82. Forced : No

  83. Text #4

  84. ID : 6

  85. Format : PGS

  86. Muxing mode : zlib

  87. Codec ID : S_HDMV/PGS

  88. Codec ID/Info : Picture based subtitle format used on BDs/HD-DVDs

  89. Language : Chinese

  90. Default : No

  91. Forced : No

  92. Text #5

  93. ID : 7

  94. Format : PGS

  95. Muxing mode : zlib

  96. Codec ID : S_HDMV/PGS

  97. Codec ID/Info : Picture based subtitle format used on BDs/HD-DVDs

  98. Language : English

  99. Default : No

  100. Forced : No

  101. Menu

  102. 00:00:00.000 : en:Chapter 01

  103. 00:10:12.695 : en:Chapter 02

  104. 00:18:31.235 : en:Chapter 03

  105. 00:29:08.413 : en:Chapter 04

  106. 00:40:18.499 : en:Chapter 05

  107. 00:50:08.422 : en:Chapter 06

  108. 01:00:00.263 : en:Chapter 07

  109. 01:08:15.758 : en:Chapter 08

  110. 01:19:31.475 : en:Chapter 09

  111. 01:28:34.225 : en:Chapter 10

  112. 01:39:50.776 : en:Chapter 11

  113. 01:49:38.363 : en:Chapter 12

  114. 01:54:43.459 : en:Chapter 13


复制代码


TAGS 动作 奇幻 冒险 剧情 /

磁力链:
  • magnet:?xt=urn:btih:B0C88131D089B0186EC90B159B507CBBAA7322F0
上传的附件:
BT9527电影天堂 1、BT9527电影天堂提供的BT文件均来源于互联网抓取,只供网友学习交流、技术提升使用。
2、我们遵守BitTorrent点对点协议原则,任何版权问题请联系原资源发布商,我们不处理任何版权纠纷,谢谢!如有争议请联系邮箱:BT9527#hotmail.com(#换成@)
3、如果您发现某页面或地址有错误,请联系站长邮箱BT9527#hotmail.com(#换成@),我们会尽快处理。您的热心是对BT9527电影天堂最大的支持。
4、本站建议去正规影院观看电影以支持电影行业发展。
最新回复 (0)

你可以在 登录 or 注册 后,对此帖发表评论!

返回