爱在托斯卡纳[中文字幕].Toscana.2022.DANISH.1080p.NF.WEBRip.DDP5.1.x264-SMURF 2.83GB

版主小s 1月前 133

◎译 名 爱在托斯卡纳 / Toskana / Toskania / 爱在托斯卡尼

◎片 名 Toscana

◎年 代 2022

◎产 地 丹麦

◎类 别 剧情 / 爱情

◎语 言 丹麦语 / 意大利语

◎上映日期 2022-05-18(丹麦网络)

◎IMDb链接 https://www.imdb.com/title/tt13276352/

◎豆瓣评分 6.3/10 (221人评价)

◎豆瓣链接 https://movie.douban.com/subject/35342564/

◎片 长 90分钟

◎导 演 迈赫迪·阿瓦兹 Mehdi Avaz (id:1395671)

◎演 员 克里斯蒂安娜·德朗娜 Cristiana Dell'Anna (id:1389237)

格茜塔·诺比 Ghita N?rby (id:1130520)

◎简 介

当一位丹麦厨师前往托斯卡纳出售他父亲的生意时,他遇到了一位当地妇女,她激励他重新思考他对生活和爱情的态度。

  1. Video

  2. ID : 1

  3. Format : AVC

  4. Format/Info : Advanced Video Codec

  5. Format profile : Main@L4

  6. Format settings : CABAC / 3 Ref Frames

  7. Format settings, CABAC : Yes

  8. Format settings, Reference frames : 3 frames

  9. Codec ID : V_MPEG4/ISO/AVC

  10. Duration : 1 h 33 min

  11. Bit rate mode : Variable

  12. Bit rate : 3 055 kb/s

  13. Nominal bit rate : 2 686 kb/s

  14. Maximum bit rate : 6 630 kb/s

  15. Width : 1 920 pixels

  16. Height : 1 080 pixels

  17. Display aspect ratio : 16:9

  18. Frame rate mode : Constant

  19. Frame rate : 24.000 FPS

  20. Color space : YUV

  21. Chroma subsampling : 4:2:0

  22. Bit depth : 8 bits

  23. Scan type : Progressive

  24. Bits/(Pixel*Frame) : 0.061

  25. Stream size : 1.99 GiB (70%)

  26. Writing library : x264 core 148 r2727 7d026e8

  27. Encoding settings : cabac=1 / ref=3 / deblock=1:0:0 / analyse=0x1:0x111 / me=umh / subme=10 / psy=1 / psy_rd=1.00:0.00 / mixed_ref=1 / me_range=24 / chroma_me=1 / trellis=2 / 8x8dct=0 / cqm=0 / deadzone=21,11 / fast_pskip=1 / chroma_qp_offset=-2 / threads=8 / lookahead_threads=1 / sliced_threads=0 / nr=0 / decimate=1 / interlaced=0 / NTMzNTQ= / bluray_compat=0 / stitchable=1 / constrained_intra=0 / bframes=2 / b_pyramid=0 / b_adapt=2 / b_bias=0 / direct=3 / weightb=1 / open_gop=0 / weightp=2 / keyint=250 / keyint_min=24 / scenecut=0 / intra_refresh=0 / rc_lookahead=48 / rc=2pass / mbtree=1 / bitrate=2686 / ratetol=1.0 / qcomp=0.50 / qpmin=6 / qpmax=51 / qpstep=4 / cplxblur=20.0 / qblur=0.5 / vbv_maxrate=6630 / vbv_bufsize=8840 / nal_hrd=vbr / filler=0 / NTMzNTQ=LmsMAP37EqsCpk / ip_ratio=1.40 / aq=1:1.00

  28. Default : Yes

  29. Forced : No


  30. Audio #1

  31. ID : 2

  32. Format : E-AC-3

  33. Format/Info : Enhanced AC-3

  34. Commercial name : Dolby Digital Plus

  35. Codec ID : A_EAC3

  36. Duration : 1 h 33 min

  37. Bit rate mode : Constant

  38. Bit rate : 640 kb/s

  39. Channel(s) : 6 channels

  40. Channel layout : L R C LFE Ls Rs

  41. Sampling rate : 48.0 kHz

  42. Frame rate : 31.250 FPS (1536 SPF)

  43. Compression mode : Lossy

  44. Stream size : 427 MiB (15%)

  45. Language : Danish

  46. Service kind : Complete Main

  47. Default : Yes

  48. Forced : No


  49. Audio #2

  50. ID : 3

  51. Format : E-AC-3

  52. Format/Info : Enhanced AC-3

  53. Commercial name : Dolby Digital Plus

  54. Codec ID : A_EAC3

  55. Duration : 1 h 33 min

  56. Bit rate mode : Constant

  57. Bit rate : 640 kb/s

  58. Channel(s) : 6 channels

  59. Channel layout : L R C LFE Ls Rs

  60. Sampling rate : 48.0 kHz

  61. Frame rate : 31.250 FPS (1536 SPF)

  62. Compression mode : Lossy

  63. Stream size : 427 MiB (15%)

  64. Language : English

  65. Service kind : Complete Main

  66. Default : No

  67. Forced : No


  68. Text #1

  69. ID : 4

  70. Format : UTF-8

  71. Codec ID : S_TEXT/UTF8

  72. Codec ID/Info : UTF-8 Plain Text

  73. Duration : 1 h 28 min

  74. Bit rate : 23 b/s

  75. Count of elements : 478

  76. Stream size : 15.4 KiB (0%)

  77. Title : Forced

  78. Language : Danish

  79. Default : Yes

  80. Forced : Yes


  81. Text #2

  82. ID : 5

  83. Format : UTF-8

  84. Codec ID : S_TEXT/UTF8

  85. Codec ID/Info : UTF-8 Plain Text

  86. Duration : 1 h 26 min

  87. Bit rate : 0 b/s

  88. Count of elements : 7

  89. Stream size : 170 Bytes (0%)

  90. Title : Forced

  91. Language : English

  92. Default : No

  93. Forced : No


  94. Text #3

  95. ID : 6

  96. Format : UTF-8

  97. Codec ID : S_TEXT/UTF8

  98. Codec ID/Info : UTF-8 Plain Text

  99. Duration : 1 h 28 min

  100. Bit rate : 44 b/s

  101. Count of elements : 831

  102. Stream size : 28.6 KiB (0%)

  103. Title : SDH

  104. Language : Danish

  105. Default : No

  106. Forced : No


  107. Text #4

  108. ID : 7

  109. Format : UTF-8

  110. Codec ID : S_TEXT/UTF8

  111. Codec ID/Info : UTF-8 Plain Text

  112. Duration : 1 h 30 min

  113. Bit rate : 56 b/s

  114. Count of elements : 783

  115. Stream size : 37.7 KiB (0%)

  116. Language : Arabic

  117. Default : No

  118. Forced : No


  119. Text #5

  120. ID : 8

  121. Format : UTF-8

  122. Codec ID : S_TEXT/UTF8

  123. Codec ID/Info : UTF-8 Plain Text

  124. Duration : 1 h 30 min

  125. Bit rate : 33 b/s

  126. Count of elements : 775

  127. Stream size : 22.6 KiB (0%)

  128. Language : Czech

  129. Default : No

  130. Forced : No


  131. Text #6

  132. ID : 9

  133. Format : UTF-8

  134. Codec ID : S_TEXT/UTF8

  135. Codec ID/Info : UTF-8 Plain Text

  136. Duration : 1 h 30 min

  137. Bit rate : 34 b/s

  138. Count of elements : 777

  139. Stream size : 23.0 KiB (0%)

  140. Language : German

  141. Default : No

  142. Forced : No


  143. Text #7

  144. ID : 10

  145. Format : UTF-8

  146. Codec ID : S_TEXT/UTF8

  147. Codec ID/Info : UTF-8 Plain Text

  148. Duration : 1 h 30 min

  149. Bit rate : 56 b/s

  150. Count of elements : 770

  151. Stream size : 37.7 KiB (0%)

  152. Language : Greek

  153. Default : No

  154. Forced : No


  155. Text #8

  156. ID : 11

  157. Format : UTF-8

  158. Codec ID : S_TEXT/UTF8

  159. Codec ID/Info : UTF-8 Plain Text

  160. Duration : 1 h 28 min

  161. Bit rate : 40 b/s

  162. Count of elements : 885

  163. Stream size : 26.1 KiB (0%)

  164. Language : English

  165. Default : No

  166. Forced : No


  167. Text #9

  168. ID : 12

  169. Format : UTF-8

  170. Codec ID : S_TEXT/UTF8

  171. Codec ID/Info : UTF-8 Plain Text

  172. Duration : 1 h 30 min

  173. Bit rate : 15 b/s

  174. Count of elements : 378

  175. Stream size : 10.1 KiB (0%)

  176. Language : English

  177. Default : No

  178. Forced : No


  179. Text #10

  180. ID : 13

  181. Format : UTF-8

  182. Codec ID : S_TEXT/UTF8

  183. Codec ID/Info : UTF-8 Plain Text

  184. Duration : 1 h 28 min

  185. Bit rate : 45 b/s

  186. Count of elements : 1029

  187. Stream size : 29.8 KiB (0%)

  188. Title : SDH

  189. Language : English

  190. Default : No

  191. Forced : No


  192. Text #11

  193. ID : 14

  194. Format : UTF-8

  195. Codec ID : S_TEXT/UTF8

  196. Codec ID/Info : UTF-8 Plain Text

  197. Duration : 1 h 30 min

  198. Bit rate : 34 b/s

  199. Count of elements : 835

  200. Stream size : 22.7 KiB (0%)

  201. Title : Latin American

  202. Language : Spanish

  203. Default : No

  204. Forced : No


  205. Text #12

  206. ID : 15

  207. Format : UTF-8

  208. Codec ID : S_TEXT/UTF8

  209. Codec ID/Info : UTF-8 Plain Text

  210. Duration : 1 h 30 min

  211. Bit rate : 32 b/s

  212. Count of elements : 823

  213. Stream size : 21.6 KiB (0%)

  214. Language : Spanish

  215. Default : No

  216. Forced : No


  217. Text #13

  218. ID : 16

  219. Format : UTF-8

  220. Codec ID : S_TEXT/UTF8

  221. Codec ID/Info : UTF-8 Plain Text

  222. Duration : 1 h 30 min

  223. Bit rate : 32 b/s

  224. Count of elements : 762

  225. Stream size : 21.5 KiB (0%)

  226. Language : Finnish

  227. Default : No

  228. Forced : No


  229. Text #14

  230. ID : 17

  231. Format : UTF-8

  232. Codec ID : S_TEXT/UTF8

  233. Codec ID/Info : UTF-8 Plain Text

  234. Duration : 1 h 30 min

  235. Bit rate : 35 b/s

  236. Count of elements : 786

  237. Stream size : 23.4 KiB (0%)

  238. Language : French

  239. Default : No

  240. Forced : No


  241. Text #15

  242. ID : 18

  243. Format : UTF-8

  244. Codec ID : S_TEXT/UTF8

  245. Codec ID/Info : UTF-8 Plain Text

  246. Duration : 1 h 30 min

  247. Bit rate : 54 b/s

  248. Count of elements : 761

  249. Stream size : 36.2 KiB (0%)

  250. Language : Hebrew

  251. Default : No

  252. Forced : No


  253. Text #16

  254. ID : 19

  255. Format : UTF-8

  256. Codec ID : S_TEXT/UTF8

  257. Codec ID/Info : UTF-8 Plain Text

  258. Duration : 1 h 30 min

  259. Bit rate : 29 b/s

  260. Count of elements : 786

  261. Stream size : 19.4 KiB (0%)

  262. Language : Croatian

  263. Default : No

  264. Forced : No


  265. Text #17

  266. ID : 20

  267. Format : UTF-8

  268. Codec ID : S_TEXT/UTF8

  269. Codec ID/Info : UTF-8 Plain Text

  270. Duration : 1 h 30 min

  271. Bit rate : 33 b/s

  272. Count of elements : 767

  273. Stream size : 22.3 KiB (0%)

  274. Language : Hungarian

  275. Default : No

  276. Forced : No


  277. Text #18

  278. ID : 21

  279. Format : UTF-8

  280. Codec ID : S_TEXT/UTF8

  281. Codec ID/Info : UTF-8 Plain Text

  282. Duration : 1 h 30 min

  283. Bit rate : 33 b/s

  284. Count of elements : 786

  285. Stream size : 22.6 KiB (0%)

  286. Language : Indonesian

  287. Default : No

  288. Forced : No


  289. Text #19

  290. ID : 22

  291. Format : UTF-8

  292. Codec ID : S_TEXT/UTF8

  293. Codec ID/Info : UTF-8 Plain Text

  294. Duration : 1 h 28 min

  295. Bit rate : 29 b/s

  296. Count of elements : 669

  297. Stream size : 18.9 KiB (0%)

  298. Language : Italian

  299. Default : No

  300. Forced : No


  301. Text #20

  302. ID : 23

  303. Format : UTF-8

  304. Codec ID : S_TEXT/UTF8

  305. Codec ID/Info : UTF-8 Plain Text

  306. Duration : 1 h 30 min

  307. Bit rate : 37 b/s

  308. Count of elements : 830

  309. Stream size : 25.2 KiB (0%)

  310. Language : Japanese

  311. Default : No

  312. Forced : No


  313. Text #21

  314. ID : 24

  315. Format : UTF-8

  316. Codec ID : S_TEXT/UTF8

  317. Codec ID/Info : UTF-8 Plain Text

  318. Duration : 1 h 30 min

  319. Bit rate : 45 b/s

  320. Count of elements : 803

  321. Stream size : 30.1 KiB (0%)

  322. Language : Korean

  323. Default : No

  324. Forced : No


  325. Text #22

  326. ID : 25

  327. Format : UTF-8

  328. Codec ID : S_TEXT/UTF8

  329. Codec ID/Info : UTF-8 Plain Text

  330. Duration : 1 h 30 min

  331. Bit rate : 33 b/s

  332. Count of elements : 780

  333. Stream size : 22.2 KiB (0%)

  334. Language : Malay

  335. Default : No

  336. Forced : No


  337. Text #23

  338. ID : 26

  339. Format : UTF-8

  340. Codec ID : S_TEXT/UTF8

  341. Codec ID/Info : UTF-8 Plain Text

  342. Duration : 1 h 30 min

  343. Bit rate : 31 b/s

  344. Count of elements : 718

  345. Stream size : 21.0 KiB (0%)

  346. Language : Norwegian Bokmal

  347. Default : No

  348. Forced : No


  349. Text #24

  350. ID : 27

  351. Format : UTF-8

  352. Codec ID : S_TEXT/UTF8

  353. Codec ID/Info : UTF-8 Plain Text

  354. Duration : 1 h 30 min

  355. Bit rate : 32 b/s

  356. Count of elements : 725

  357. Stream size : 21.4 KiB (0%)

  358. Language : Dutch

  359. Default : No

  360. Forced : No


  361. Text #25

  362. ID : 28

  363. Format : UTF-8

  364. Codec ID : S_TEXT/UTF8

  365. Codec ID/Info : UTF-8 Plain Text

  366. Duration : 1 h 30 min

  367. Bit rate : 32 b/s

  368. Count of elements : 766

  369. Stream size : 21.6 KiB (0%)

  370. Language : Polish

  371. Default : No

  372. Forced : No


  373. Text #26

  374. ID : 29

  375. Format : UTF-8

  376. Codec ID : S_TEXT/UTF8

  377. Codec ID/Info : UTF-8 Plain Text

  378. Duration : 1 h 30 min

  379. Bit rate : 34 b/s

  380. Count of elements : 778

  381. Stream size : 22.6 KiB (0%)

  382. Title : Brazilian

  383. Language : Portuguese

  384. Default : No

  385. Forced : No


  386. Text #27

  387. ID : 30

  388. Format : UTF-8

  389. Codec ID : S_TEXT/UTF8

  390. Codec ID/Info : UTF-8 Plain Text

  391. Duration : 1 h 30 min

  392. Bit rate : 35 b/s

  393. Count of elements : 778

  394. Stream size : 23.4 KiB (0%)

  395. Language : Portuguese

  396. Default : No

  397. Forced : No


  398. Text #28

  399. ID : 31

  400. Format : UTF-8

  401. Codec ID : S_TEXT/UTF8

  402. Codec ID/Info : UTF-8 Plain Text

  403. Duration : 1 h 28 min

  404. Bit rate : 35 b/s

  405. Count of elements : 689

  406. Stream size : 23.2 KiB (0%)

  407. Language : Romanian

  408. Default : No

  409. Forced : No


  410. Text #29

  411. ID : 32

  412. Format : UTF-8

  413. Codec ID : S_TEXT/UTF8

  414. Codec ID/Info : UTF-8 Plain Text

  415. Duration : 1 h 30 min

  416. Bit rate : 57 b/s

  417. Count of elements : 782

  418. Stream size : 38.2 KiB (0%)

  419. Language : Russian

  420. Default : No

  421. Forced : No


  422. Text #30

  423. ID : 33

  424. Format : UTF-8

  425. Codec ID : S_TEXT/UTF8

  426. Codec ID/Info : UTF-8 Plain Text

  427. Duration : 1 h 30 min

  428. Bit rate : 35 b/s

  429. Count of elements : 689

  430. Stream size : 23.9 KiB (0%)

  431. Language : Swedish

  432. Default : No

  433. Forced : No


  434. Text #31

  435. ID : 34

  436. Format : UTF-8

  437. Codec ID : S_TEXT/UTF8

  438. Codec ID/Info : UTF-8 Plain Text

  439. Duration : 1 h 30 min

  440. Bit rate : 88 b/s

  441. Count of elements : 913

  442. Stream size : 58.8 KiB (0%)

  443. Language : Thai

  444. Default : No

  445. Forced : No


  446. Text #32

  447. ID : 35

  448. Format : UTF-8

  449. Codec ID : S_TEXT/UTF8

  450. Codec ID/Info : UTF-8 Plain Text

  451. Duration : 1 h 30 min

  452. Bit rate : 33 b/s

  453. Count of elements : 682

  454. Stream size : 22.5 KiB (0%)

  455. Language : Turkish

  456. Default : No

  457. Forced : No


  458. Text #33

  459. ID : 36

  460. Format : UTF-8

  461. Codec ID : S_TEXT/UTF8

  462. Codec ID/Info : UTF-8 Plain Text

  463. Duration : 1 h 30 min

  464. Bit rate : 53 b/s

  465. Count of elements : 779

  466. Stream size : 35.9 KiB (0%)

  467. Language : Ukrainian

  468. Default : No

  469. Forced : No


  470. Text #34

  471. ID : 37

  472. Format : UTF-8

  473. Codec ID : S_TEXT/UTF8

  474. Codec ID/Info : UTF-8 Plain Text

  475. Duration : 1 h 30 min

  476. Bit rate : 53 b/s

  477. Count of elements : 769

  478. Stream size : 35.7 KiB (0%)

  479. Language : Vietnamese

  480. Default : No

  481. Forced : No


  482. Text #35

  483. ID : 38

  484. Format : UTF-8

  485. Codec ID : S_TEXT/UTF8

  486. Codec ID/Info : UTF-8 Plain Text

  487. Duration : 1 h 30 min

  488. Bit rate : 35 b/s

  489. Count of elements : 801

  490. Stream size : 23.5 KiB (0%)

  491. Title : Simplified

  492. Language : Chinese

  493. Default : No

  494. Forced : No


  495. Text #36

  496. ID : 39

  497. Format : UTF-8

  498. Codec ID : S_TEXT/UTF8

  499. Codec ID/Info : UTF-8 Plain Text

  500. Duration : 1 h 30 min

  501. Bit rate : 35 b/s

  502. Count of elements : 777

  503. Stream size : 23.8 KiB (0%)

  504. Title : Traditional

  505. Language : Chinese

  506. Default : No

  507. Forced : No


  508. Menu

  509. 01:29:40.000 : en:Credits

复制代码

  


TAGS 剧情 爱情 /

磁力链:
  • magnet:?xt=urn:btih:A4F20B5977780591CA5FEA27FD5BFB4F59D1183F
上传的附件:
BT9527电影天堂 1、BT9527电影天堂提供的BT文件均来源于互联网抓取,只供网友学习交流、技术提升使用。
2、我们遵守BitTorrent点对点协议原则,任何版权问题请联系原资源发布商,我们不处理任何版权纠纷,谢谢!如有争议请联系邮箱:BT9527#hotmail.com(#换成@)
3、如果您发现某页面或地址有错误,请联系站长邮箱BT9527#hotmail.com(#换成@),我们会尽快处理。您的热心是对BT9527电影天堂最大的支持。
4、本站建议去正规影院观看电影以支持电影行业发展。
最新回复 (0)

你可以在 登录 or 注册 后,对此帖发表评论!

返回
发新帖