占领2[简繁字幕].Occupation.Rainfall.2020.1080p.BluRay.DTS.x265-10bit-ENTHD 9.59GB

版主小s 29天前 152

◎译 名 占领2 / Occupation Rainfall

◎片 名 Occupation 2

◎年 代 2021

◎产 地 澳大利亚

◎类 别 动作 / 科幻

◎语 言 英语

◎上映日期 2021-01-28(澳大利亚)

◎IMDb链接 https://www.imdb.com/title/tt8615822/

◎豆瓣评分 4.1/10 (183人评价)

◎豆瓣链接 https://movie.douban.com/subject/30280504/

◎演 员 郑肯 Ken Jeong (id:1275017)

特穆拉·莫里森 Temuera Morrison (id:1013898)

丹尼尔·尤因 Daniel Ewing (id:1237140)

◎简 介

郑肯([摘金奇缘])加盟澳大利亚科幻片[占领]续集。首部导演卢克·斯巴克回归执导,卡司包括特穆拉·莫里森、丹尼尔·尤因、斯蒂芬妮·雅格布森等。首部于今年7月北美上映,故事围绕小镇居民合力抵抗外星入侵展开。续集将在下月澳洲开机。

  1. ##### MediaInfo ######

  2. General

  3. Unique ID : 137036984446123601808290350666765444144 (0x67185CF995343F31A1786E9B251A2430)

  4. Complete name : Occupation.Rainfall.2020.1080p.BluRay.DTS.x265-10bit-ENTHD.mkv

  5. Format : Matroska

  6. Format version : Version 4

  7. File size : 9.59 GiB

  8. Duration : 2 h 8 min

  9. Overall bit rate : 10.7 Mb/s

  10. Movie name : Occupation Rainfall 2020 1080p BluRay DTS x265-10bit-HDS

  11. Encoded date : UTC 2022-05-29 14:16:23

  12. Writing application : mkvmerge v67.0.0 ('Under Stars') 64-bit

  13. Writing library : libebml v1.4.2 + libmatroska v1.6.4

  14. Video

  15. ID : 1

  16. Format : HEVC

  17. Format/Info : High Efficiency Video Coding

  18. Format profile : Main 10@L5.1@High

  19. Codec ID : V_MPEGH/ISO/HEVC

  20. Duration : 2 h 8 min

  21. Bit rate : 9 164 kb/s

  22. Width : 1 920 pixels

  23. Height : 802 pixels

  24. Display aspect ratio : 2.40:1

  25. Frame rate mode : Constant

  26. Frame rate : 23.976 (24000/1001/53354) FPS

  27. Color space : YUV

  28. Chroma subsampling : 4:2:0

  29. Bit depth : 10 bits

  30. Bits/(Pixel*Frame) : 0.248

  31. Stream size : 8.21 GiB (86%)

  32. Title : bbdsxl@HDSky

  33. Writing library : x265 - H.265/HEVC codec

  34. Default : Yes

  35. Forced : No

  36. Audio

  37. ID : 2

  38. Format : DTS

  39. Format/Info : Digital Theater Systems

  40. Codec ID : A_DTS

  41. Duration : 2 h 8 min

  42. Bit rate mode : Constant

  43. Bit rate : 1 509 kb/s

  44. Channel(s) : 6 channels

  45. Channel layout : C L R Ls Rs LFE

  46. Sampling rate : 48.0 kHz

  47. Frame rate : 93.750 FPS (512 SPF)

  48. Bit depth : 24 bits

  49. Compression mode : Lossy

  50. Stream size : 1.35 GiB (14%)

  51. Title : English

  52. Language : English

  53. Default : Yes

  54. Forced : No

  55. Text #1

  56. ID : 3

  57. Format : PGS

  58. Muxing mode : zlib

  59. Codec ID : S_HDMV/PGS

  60. Codec ID/Info : Picture based subtitle format used on BDs/HD-DVDs

  61. Duration : 2 h 2 min

  62. Bit rate : 26.2 kb/s

  63. Count of elements : 3140

  64. Stream size : 23.1 MiB (0%)

  65. Title : CHS

  66. Language : Chinese

  67. Default : Yes

  68. Forced : No

  69. Text #2

  70. ID : 4

  71. Format : PGS

  72. Muxing mode : zlib

  73. Codec ID : S_HDMV/PGS

  74. Codec ID/Info : Picture based subtitle format used on BDs/HD-DVDs

  75. Duration : 2 h 2 min

  76. Bit rate : 27.0 kb/s

  77. Count of elements : 3140

  78. Stream size : 23.7 MiB (0%)

  79. Title : CHT

  80. Language : Chinese

  81. Default : Yes

  82. Forced : No

  83. Menu

  84. 00:00:00.000 : en:Chapter 01

  85. 00:12:24.535 : en:Chapter 02

  86. 00:20:19.009 : en:Chapter 03

  87. 00:31:39.648 : en:Chapter 04

  88. 00:38:53.706 : en:Chapter 05

  89. 00:49:36.974 : en:Chapter 06

  90. 00:59:38.700 : en:Chapter 07

  91. 01:13:27.528 : en:Chapter 08

  92. 01:27:06.471 : en:Chapter 09

  93. 01:39:08.860 : en:Chapter 10

  94. 01:49:48.540 : en:Chapter 11

  95. 02:01:42.670 : en:Chapter 12


复制代码


TAGS 动作 科幻 /

磁力链:
  • magnet:?xt=urn:btih:7C92B4209A8F3C66678694D2A08743134037CDF0
上传的附件:
BT9527电影天堂 1、BT9527电影天堂提供的BT文件均来源于互联网抓取,只供网友学习交流、技术提升使用。
2、我们遵守BitTorrent点对点协议原则,任何版权问题请联系原资源发布商,我们不处理任何版权纠纷,谢谢!如有争议请联系邮箱:BT9527#hotmail.com(#换成@)
3、如果您发现某页面或地址有错误,请联系站长邮箱BT9527#hotmail.com(#换成@),我们会尽快处理。您的热心是对BT9527电影天堂最大的支持。
4、本站建议去正规影院观看电影以支持电影行业发展。
最新回复 (0)

你可以在 登录 or 注册 后,对此帖发表评论!

返回
发新帖