坏蛋联盟[简繁英字幕].The.Bad.Guys.2022.BluRay.1080p.TrueHD.7.1.x265.10bit-CTRLHD 7.42GB

版主小s 1月前 158

◎译 名 坏蛋联盟 / 大坏蛋 / 坏家伙 / Bad Guys

◎片 名 The Bad Guys

◎年 代 2022

◎产 地 美国

◎类 别 喜剧 / 动画 / 冒险

◎语 言 英语

◎上映日期 2022-04-29(中国大陆) / 2022-03-17(阿根廷) / 2022-04-22(美国)

◎IMDb链接 https://www.imdb.com/title/tt8115900/

◎豆瓣评分 7.3/10 (73811人评价)

◎豆瓣链接 https://movie.douban.com/subject/30165311/

◎片 长 100分钟

◎导 演 彼埃尔·佩里菲尔 Pierre Perifel (id:1408784)

◎编 剧 艾伦·布拉培 Aaron Blabey (id:1278711)

伊坦·柯亨 Etan Cohen (id:1302166)

尤尼·布伦纳 Yoni Brenner (id:1361293)

希拉里·温斯顿 Hilary Winston (id:1321813)

◎演 员 山姆·洛克威尔 Sam Rockwell (id:1047972)

马克·马龙 Marc Maron (id:1116943)

奥卡菲娜 Awkwafina (id:1360857)

克雷格·罗宾森 Craig Robinson (id:1142826)

安东尼·拉莫斯 Anthony Ramos (id:1388489)

理查德·艾欧阿德 Richard Ayoade (id:1274320)

莎姬·贝兹 Zazie Beetz (id:1370059)

艾利克斯·布诺斯町 Alex Borstein (id:1007007)

莉莉·辛格 Lilly Singh (id:1393866)

芭芭拉·古德森 Barbara Goodson (id:1102389)

迪娜·莫罗 Dina Morrone (id:1470954)

迈克尔·高德尔 Michael Godere (id:1097245)

凯莉·库尼 Kelly Cooney (id:1383206)

沃尔特·道恩 Walt Dohrn (id:1371495)

戴维·P·史密斯 David P. Smith (id:1408787)

◎简 介

故事的主角是五个无恶不作的坏蛋——风度翩翩的扒手“大坏狼”、见多识广的保险箱窃贼“贪心蛇”、冷静沉稳的伪装大师“美肚鲨”、暴躁易怒的打手“食人鱼”、伶牙俐齿的黑客专家“骇客蛛”闪亮登场,他们是最臭名昭著的“坏蛋联盟”。他们平时威风八面,四处作案,令人闻风丧胆。直到某一天,他们突然想成为模范公民,然而转型路途甚是艰难,且意外层出不穷,令人啼笑皆非。

  1. ##### MediaInfo ######

  2. General

  3. Unique ID : 135913407170022426585181710438759191911 (0x663FF85696CC36E4B939D0E009FCD567)

  4. Complete name : The.Bad.Guys.2022.BluRay.1080p.TrueHD.7.1.x265.10bit-CTRLHD.mkv

  5. Format : Matroska

  6. Format version : Version 4

  7. File size : 7.42 GiB

  8. Duration : 1 h 40 min

  9. Overall bit rate mode : Variable

  10. Overall bit rate : 10.6 Mb/s

  11. Encoded date : UTC 2022-05-24 21:16:14

  12. Writing application : mkvmerge v66.0.0 ('Josie') 64-bit

  13. Writing library : libebml v1.4.2 + libmatroska v1.6.4

  14. Video

  15. ID : 1

  16. Format : HEVC

  17. Format/Info : High Efficiency Video Coding

  18. Format profile : Main 10@L4@Main

  19. Codec ID : V_MPEGH/ISO/HEVC

  20. Duration : 1 h 40 min

  21. Bit rate : 7 062 kb/s

  22. Width : 1 920 pixels

  23. Height : 804 pixels

  24. Display aspect ratio : 2.40:1

  25. Frame rate mode : Constant

  26. Frame rate : 23.976 (24000/1001/53354) FPS

  27. Color space : YUV

  28. Chroma subsampling : 4:2:0

  29. Bit depth : 10 bits

  30. Bits/(Pixel*Frame) : 0.191

  31. Stream size : 4.94 GiB (67%)

  32. Writing library : x265 3.5+20-17839cc0d:[Windows][MSVC 1930][64 bit] 10bit

  33. Encoding settings : cpuid=533541111039 / frame-threads=4 / numa-pools=16 / wpp / no-pmode / pme / no-psnr / no-ssim / log-level=2 / input-csp=1 / input-res=1920x804 / interlace=0 / total-frames=0 / level-idc=0 / high-tier=1 / uhd-bd=0 / ref=6 / no-allow-non-conformance / repeat-headers / annexb / no-aud / no-eob / no-eos / no-hrd / info / hash=0 / no-temporal-layers / no-open-gop / min-keyint=23 / keyint=250 / gop-lookahead=0 / bframes=8 / b-adapt=2 / b-pyramid / bframe-bias=0 / rc-lookahead=57 / lookahead-slices=5 / NTMzNTQ=uuDQuD2mJt9fsCf / scenecut=40 / no-hist-scenecut / radl=0 / no-splice / no-intra-refresh / ctu=64 / min-cu-size=8 / no-rect / no-amp / max-tu-size=32 / tu-inter-depth=1 / tu-intra-depth=1 / limit-tu=0 / rdoq-level=0 / dynamic-rd=0.00 / no-ssim-rd / signhide / no-tskip / nr-intra=0 / nr-inter=0 / no-constrained-intra / no-strong-intra-smoothing / max-merge=3 / limit-refs=1 / no-limit-modes / me=2 / subme=7 / merange=57 / temporal-mvp / no-frame-dup / no-hme / weightp / weightb / no-analyze-src-pics / deblock=0:0 / sao / no-sao-non-deblock / rd=4 / selective-sao=4 / early-skip / rskip / no-fast-intra / no-tskip-fast / no-cu-lossless / b-intra / no-splitrd-skip / rdpenalty=0 / psy-rd=2.00 / psy-rdoq=0.00 / no-rd-refine / no-lossless / cbqpoffs=0 / crqpoffs=0 / rc=crf / crf=16.0 / qcomp=0.60 / qpstep=4 / stats-write=0 / stats-read=0 / ipratio=1.40 / pbratio=1.30 / aq-mode=3 / aq-strength=1.00 / cutree / zone-count=0 / no-strict-cbr / qg-size=32 / no-rc-grain / qpmax=69 / qpmin=0 / no-const-vbv / sar=0 / overscan=0 / videoformat=5 / range=0 / colorprim=2 / transfer=2 / colormatrix=2 / chromaloc=0 / display-window=0 / cll=0,0 / min-luma=0 / max-luma=1023 / log2-max-poc-lsb=8 / vui-timing-info / vui-hrd-info / slices=1 / no-opt-qp-pps / no-opt-ref-list-length-pps / no-multi-pass-opt-rps / scenecut-bias=0.05 / hist-threshold=0.03 / no-opt-cu-delta-qp / aq-motion / no-hdr10 / no-hdr10-opt / no-dhdr10-opt / no-idr-recovery-sei / analysis-reuse-level=0 / analysis-save-reuse-level=0 / analysis-load-reuse-level=0 / scale-factor=0 / refine-intra=0 / refine-inter=0 / refine-mv=1 / refine-ctu-distortion=0 / no-limit-sao / ctu-info=0 / no-lowpass-dct / refine-analysis-type=0 / copy-pic=1 / max-ausize-factor=1.0 / no-dynamic-refine / no-single-sei / no-hevc-aq / no-svt / no-field / qp-adaptation-range=1.00 / scenecut-aware-qp=0conformance-window-offsets / right=0 / bottom=0 / NTMzNTQ= / decoder-max-rate=0 / no-vbv-live-multi-pass

  34. Default : Yes

  35. Forced : No

  36. Audio

  37. ID : 2

  38. Format : MLP FBA 16-ch

  39. Format/Info : Meridian Lossless Packing FBA with 16-channel presentation

  40. Commercial name : Dolby TrueHD with Dolby Atmos

  41. Codec ID : A_TRUEHD

  42. Duration : 1 h 40 min

  43. Bit rate mode : Variable

  44. Bit rate : 3 166 kb/s

  45. Maximum bit rate : 4 686 kb/s

  46. Channel(s) : 8 channels

  47. Channel layout : L R C LFE Ls Rs Lb Rb

  48. Sampling rate : 48.0 kHz

  49. Frame rate : 1 200.000 FPS (40 SPF)

  50. Compression mode : Lossless

  51. Stream size : 2.21 GiB (30%)

  52. Default : Yes

  53. Forced : No

  54. Number of dynamic objects : 11

  55. Bed channel count : 1 channel

  56. Bed channel configuration : LFE

  57. Text #1

  58. ID : 3

  59. Format : PGS

  60. Muxing mode : zlib

  61. Codec ID : S_HDMV/PGS

  62. Codec ID/Info : Picture based subtitle format used on BDs/HD-DVDs

  63. Duration : 1 h 39 min

  64. Bit rate : 56.2 kb/s

  65. Count of elements : 3934

  66. Stream size : 39.9 MiB (1%)

  67. Language : English

  68. Default : No

  69. Forced : No

  70. Text #2

  71. ID : 4

  72. Format : PGS

  73. Muxing mode : zlib

  74. Codec ID : S_HDMV/PGS

  75. Codec ID/Info : Picture based subtitle format used on BDs/HD-DVDs

  76. Duration : 1 h 35 min

  77. Bit rate : 130 kb/s

  78. Count of elements : 6684

  79. Stream size : 89.0 MiB (1%)

  80. Title : chs

  81. Language : Chinese

  82. Default : Yes

  83. Forced : No

  84. Text #3

  85. ID : 5

  86. Format : PGS

  87. Muxing mode : zlib

  88. Codec ID : S_HDMV/PGS

  89. Codec ID/Info : Picture based subtitle format used on BDs/HD-DVDs

  90. Duration : 1 h 35 min

  91. Bit rate : 132 kb/s

  92. Count of elements : 6684

  93. Stream size : 90.4 MiB (1%)

  94. Title : cht

  95. Language : Chinese

  96. Default : No

  97. Forced : No

  98. Text #4

  99. ID : 6

  100. Format : PGS

  101. Muxing mode : zlib

  102. Codec ID : S_HDMV/PGS

  103. Codec ID/Info : Picture based subtitle format used on BDs/HD-DVDs

  104. Duration : 1 h 35 min

  105. Bit rate : 180 kb/s

  106. Count of elements : 6684

  107. Stream size : 123 MiB (2%)

  108. Title : chs & eng

  109. Language : Chinese

  110. Default : No

  111. Forced : No

  112. Text #5

  113. ID : 7

  114. Format : PGS

  115. Muxing mode : zlib

  116. Codec ID : S_HDMV/PGS

  117. Codec ID/Info : Picture based subtitle format used on BDs/HD-DVDs

  118. Duration : 1 h 35 min

  119. Bit rate : 182 kb/s

  120. Count of elements : 6684

  121. Stream size : 124 MiB (2%)

  122. Title : cht & eng

  123. Language : Chinese

  124. Default : No

  125. Forced : No

  126. Menu

  127. 00:00:00.000 : :第 01 章

  128. 00:05:37.420 : :第 02 章

  129. 00:10:32.632 : :第 03 章

  130. 00:12:36.839 : :第 04 章

  131. 00:15:41.566 : :第 05 章

  132. 00:20:21.595 : :第 06 章

  133. 00:25:25.232 : :第 07 章

  134. 00:30:52.726 : :第 08 章

  135. 00:40:03.151 : :第 09 章


复制代码


TAGS 冒险 动画 喜剧 /

磁力链:
  • magnet:?xt=urn:btih:9E54A52BFDC33F4CB5C187B1D640297BAD1BAAE0
上传的附件:
BT9527电影天堂 1、BT9527电影天堂提供的BT文件均来源于互联网抓取,只供网友学习交流、技术提升使用。
2、我们遵守BitTorrent点对点协议原则,任何版权问题请联系原资源发布商,我们不处理任何版权纠纷,谢谢!如有争议请联系邮箱:BT9527#hotmail.com(#换成@)
3、如果您发现某页面或地址有错误,请联系站长邮箱BT9527#hotmail.com(#换成@),我们会尽快处理。您的热心是对BT9527电影天堂最大的支持。
4、本站建议去正规影院观看电影以支持电影行业发展。
最新回复 (0)

你可以在 登录 or 注册 后,对此帖发表评论!

返回
发新帖