太极张三丰[国粤英多音轨/简繁英字幕].Tai.Chi.Master.1993.BluRay.1080p.2Audio.AC3.x265.10bit-ALT 8.60GB

版主小s 4月前 371

◎译 名 太极张三丰 / The Tai-chi Master / Twin Warriors / Tai ji: Zhang San Feng

◎片 名 太極張三豐

◎年 代 1993

◎产 地 中国香港 / 中国大陆

◎类 别 喜剧 / 动作 / 武侠 / 古装

◎语 言 粤语 / 汉语普通话

◎上映日期 1993-11-18(中国香港)

◎IMDb链接 https://www.imdb.com/title/tt0108281/

◎豆瓣评分 8.0/10 (143796人评价)

◎豆瓣链接 https://movie.douban.com/subject/1294561/

◎片 长 96分钟

◎导 演 袁和平 Woo-ping Yuen (id:1275026)

◎编 剧 叶广俭 Kwong Kim Yip (id:1301507)

◎演 员 李连杰 Jet Li (id:1025146)

杨紫琼 Michelle Yeoh (id:1022664)

钱小豪 Siu-hou Chin (id:1005415)

袁洁莹 Fennie Yuen (id:1051082)

袁祥仁 Cheung-Yan Yuen (id:1301574)

刘洵 Shun Lau (id:1274304)

于海 Hai Yu (id:1312752)

刘立伟 Liwei Liu (id:1316420)

孙建魁 Jiankui Sun (id:1319122)

刘长安 Chang'an Liu (id:1411617)

胡伟立 Wai Lap Wu (id:1275249)

袁凤瑛 Fung-Ying Yuen (id:1419130)

刘满棠 Moon-Tong Lau (id:1289492)

林安儿 Angie Lam (id:1038152)

李景文 King Man Lee (id:1289681)

付德林 Delin Fu (id:1330705)

王春朴 Chunpu Wang (id:1402997)

傅德林 Delin Fu (id:1308442)

冯瑞莲 Shui-Lin Fung (id:1377177)

吕荫培 Yinpei Lü (id:1451316)

白存平 Cunping Bai (id:1400380)

袁和平 Woo-ping Yuen (id:1275026)

谷轩昭 Huan-Chiu Ku (id:1289063)

凌志华 Chi Wah Ling (id:1335020)

才汝彬 Alan Chui (id:1360754)

厉曼婷 Manting Li (id:1399470)

◎简 介

宦官弄权的明朝末年,苛税与暴政弄得民不聊生。张君宝(李连杰)与董天宝(钱小豪)是一对自幼在少林寺长大的师兄弟,但两人性格迥异,张君宝善良忠厚,董天宝则狡猾阴险,在争夺进入达摩院修行的资格时,两人因与师伯发生争执,被逐出少林。

出寺后,两人因志向渐不同而分道扬镳,董天宝贪图荣华参军,张君宝则与一群仁人志士一起劫富济贫。为求高官,董天宝向大宦官刘瑾出卖大批旧友,一时间血流成河。为替义士报仇,也为帮民除害,张君宝在秋雪(杨紫琼)的帮助下,从其师傅的气功心法中悟出一套武林奇功“太极拳”,开始勤加练习,准备不日与敌手来场血战。

◎获奖情况 (共2项)

第30届台北金马影展 (1993)

金马奖 最佳动作设计(提名)

金马奖 最佳剪辑(提名)

└──林安儿 (id:1038152)

  1. ##### MediaInfo ######

  2. General

  3. Unique ID : 110376139465941175918832808145955445045 (0x5309ABD4B3D3A283BD151EF10EB1D935)

  4. Complete name : Tai.Chi.Master.1993.BluRay.1080p.2Audio.AC3.x265.10bit-ALT.mkv

  5. Format : Matroska

  6. Format version : Version 4

  7. File size : 8.60 GiB

  8. Duration : 1 h 36 min

  9. Overall bit rate : 12.7 Mb/s

  10. Encoded date : UTC 2022-06-01 02:27:53

  11. Writing application : mkvmerge v49.0.0 ('Sick Of Losing Soulmates') 64-bit

  12. Writing library : libebml v1.4.0 + libmatroska v1.6.1

  13. Video

  14. ID : 1

  15. Format : HEVC

  16. Format/Info : High Efficiency Video Coding

  17. Format profile : Main 10@L5.1@High

  18. Codec ID : V_MPEGH/ISO/HEVC

  19. Duration : 1 h 36 min

  20. Bit rate : 11.7 Mb/s

  21. Width : 1 920 pixels

  22. Height : 1 080 pixels

  23. Display aspect ratio : 16:9

  24. Frame rate mode : Constant

  25. Frame rate : 23.976 (24000/1001/53354) FPS

  26. Color space : YUV

  27. Chroma subsampling : 4:2:0

  28. Bit depth : 10 bits

  29. Bits/(Pixel*Frame) : 0.235

  30. Stream size : 7.88 GiB (92%)

  31. Title : HEVC, x265Main10@L5.1@High, 24/1.001 fps @ 11706 kbps

  32. Writing library : x265 3.5+36-1f2c8da77:[Windows][GCC 11.2.0][64 bit] 10bit

  33. Encoding settings : cpuid=533541111039 / frame-threads=4 / numa-pools=16 / wpp / no-pmode / no-pme / no-psnr / no-ssim / log-level=2 / input-csp=1 / input-res=1920x1080 / interlace=0 / total-frames=138687 / level-idc=51 / high-tier=1 / uhd-bd=0 / ref=5 / no-allow-non-conformance / no-repeat-headers / annexb / no-aud / no-eob / no-eos / no-hrd / info / hash=0 / no-temporal-layers / open-gop / min-keyint=24 / keyint=240 / gop-lookahead=0 / bframes=6 / b-adapt=2 / b-pyramid / bframe-bias=0 / rc-lookahead=40 / lookahead-slices=0 / NTMzNTQ=uuDQuD2mJt9fsCf / scenecut=40 / no-hist-scenecut / radl=0 / no-splice / no-intra-refresh / ctu=32 / min-cu-size=8 / no-rect / no-amp / max-tu-size=32 / tu-inter-depth=3 / tu-intra-depth=3 / limit-tu=4 / rdoq-level=2 / dynamic-rd=0.00 / no-ssim-rd / signhide / no-tskip / nr-intra=0 / nr-inter=0 / no-constrained-intra / no-strong-intra-smoothing / max-merge=4 / limit-refs=1 / limit-modes / me=3 / subme=4 / merange=25 / temporal-mvp / no-frame-dup / no-hme / weightp / weightb / no-analyze-src-pics / deblock=-3:-3 / no-sao / no-sao-non-deblock / rd=6 / selective-sao=0 / no-early-skip / rskip / no-fast-intra / no-tskip-fast / no-cu-lossless / b-intra / no-splitrd-skip / rdpenalty=0 / psy-rd=2.00 / psy-rdoq=1.00 / no-rd-refine / no-lossless / cbqpoffs=-2 / crqpoffs=-2 / rc=crf / crf=18.5 / qcomp=0.65 / qpstep=4 / stats-write=0 / stats-read=0 / vbv-maxrate=80000 / vbv-bufsize=80000 / vbv-init=0.9 / min-vbv-fullness=50.0 / max-vbv-fullness=80.0 / crf-max=0.0 / crf-min=0.0 / ipratio=1.40 / pbratio=1.30 / aq-mode=2 / aq-strength=0.85 / cutree / zone-count=0 / no-strict-cbr / qg-size=32 / no-rc-grain / qpmax=69 / qpmin=0 / no-const-vbv / sar=1 / overscan=0 / videoformat=5 / range=0 / colorprim=1 / transfer=1 / colormatrix=1 / chromaloc=0 / display-window=0 / cll=0,0 / min-luma=0 / max-luma=1023 / log2-max-poc-lsb=8 / vui-timing-info / vui-hrd-info / slices=1 / no-opt-qp-pps / no-opt-ref-list-length-pps / no-multi-pass-opt-rps / scenecut-bias=0.05 / hist-threshold=0.03 / no-opt-cu-delta-qp / no-aq-motion / no-hdr10 / no-hdr10-opt / no-dhdr10-opt / no-idr-recovery-sei / analysis-reuse-level=0 / analysis-save-reuse-level=0 / analysis-load-reuse-level=0 / scale-factor=0 / refine-intra=0 / refine-inter=0 / refine-mv=1 / refine-ctu-distortion=0 / no-limit-sao / ctu-info=0 / no-lowpass-dct / refine-analysis-type=0 / copy-pic=1 / max-ausize-factor=1.0 / no-dynamic-refine / no-single-sei / no-hevc-aq / no-svt / no-field / qp-adaptation-range=1.00 / scenecut-aware-qp=0conformance-window-offsets / right=0 / bottom=0 / NTMzNTQ= / decoder-max-rate=0 / no-vbv-live-multi-pass

  34. Language : English

  35. Default : Yes

  36. Forced : No

  37. Color range : Limited

  38. Color primaries : BT.709

  39. Transfer characteristics : BT.709

  40. Matrix coefficients : BT.709

  41. Audio #1

  42. ID : 2

  43. Format : AC-3

  44. Format/Info : Audio Coding 3

  45. Commercial name : Dolby Digital

  46. Codec ID : A_AC3

  47. Duration : 1 h 36 min

  48. Bit rate mode : Constant

  49. Bit rate : 448 kb/s

  50. Channel(s) : 6 channels

  51. Channel layout : L R C LFE Ls Rs

  52. Sampling rate : 48.0 kHz

  53. Frame rate : 31.250 FPS (1536 SPF)

  54. Compression mode : Lossy

  55. Stream size : 310 MiB (4%)

  56. Title : Cantonese Dolby Digital Audio 5.1 @ 448 kbps

  57. Language : Chinese

  58. Service kind : Complete Main

  59. Default : No

  60. Forced : No

  61. Audio #2

  62. ID : 3

  63. Format : AC-3

  64. Format/Info : Audio Coding 3

  65. Commercial name : Dolby Digital

  66. Codec ID : A_AC3

  67. Duration : 1 h 36 min

  68. Bit rate mode : Constant

  69. Bit rate : 384 kb/s

  70. Channel(s) : 6 channels

  71. Channel layout : L R C LFE Ls Rs

  72. Sampling rate : 48.0 kHz

  73. Frame rate : 31.250 FPS (1536 SPF)

  74. Compression mode : Lossy

  75. Stream size : 265 MiB (3%)

  76. Title : Mandarin Dolby Digital Audio 5.1 @ 384 kbps

  77. Language : Chinese

  78. Service kind : Complete Main

  79. Default : Yes

  80. Forced : No

  81. Text #1

  82. ID : 4

  83. Format : PGS

  84. Codec ID : S_HDMV/PGS

  85. Codec ID/Info : Picture based subtitle format used on BDs/HD-DVDs

  86. Duration : 1 h 32 min

  87. Bit rate : 65.8 kb/s

  88. Count of elements : 1550

  89. Stream size : 43.6 MiB (0%)

  90. Title : Eng/SUP

  91. Language : English

  92. Default : No

  93. Forced : No

  94. Text #2

  95. ID : 5

  96. Format : PGS

  97. Codec ID : S_HDMV/PGS

  98. Codec ID/Info : Picture based subtitle format used on BDs/HD-DVDs

  99. Duration : 1 h 32 min

  100. Bit rate : 67.6 kb/s

  101. Count of elements : 1628

  102. Stream size : 44.8 MiB (1%)

  103. Title : Eng/SUP SDH

  104. Language : English

  105. Default : No

  106. Forced : No

  107. Text #3

  108. ID : 6

  109. Format : PGS

  110. Codec ID : S_HDMV/PGS

  111. Codec ID/Info : Picture based subtitle format used on BDs/HD-DVDs

  112. Duration : 1 h 32 min

  113. Bit rate : 24.8 kb/s

  114. Count of elements : 2469

  115. Stream size : 16.4 MiB (0%)

  116. Title : Cht/SUP 粤语繁体

  117. Language : Chinese

  118. Default : No

  119. Forced : No

  120. Text #4

  121. ID : 7

  122. Format : PGS

  123. Codec ID : S_HDMV/PGS

  124. Codec ID/Info : Picture based subtitle format used on BDs/HD-DVDs

  125. Duration : 1 h 32 min

  126. Bit rate : 24.2 kb/s

  127. Count of elements : 2469

  128. Stream size : 16.1 MiB (0%)

  129. Title : Chs/SUP 粤语简体

  130. Language : Chinese

  131. Default : Yes

  132. Forced : No

  133. Text #5

  134. ID : 8

  135. Format : PGS

  136. Codec ID : S_HDMV/PGS

  137. Codec ID/Info : Picture based subtitle format used on BDs/HD-DVDs

  138. Duration : 1 h 32 min

  139. Bit rate : 25.3 kb/s

  140. Count of elements : 2319

  141. Stream size : 16.8 MiB (0%)

  142. Title : Cht/SUP 繁体

  143. Language : Chinese

  144. Default : No

  145. Forced : No

  146. Text #6

  147. ID : 9

  148. Format : PGS

  149. Codec ID : S_HDMV/PGS

  150. Codec ID/Info : Picture based subtitle format used on BDs/HD-DVDs

  151. Duration : 1 h 32 min

  152. Bit rate : 24.1 kb/s

  153. Count of elements : 2319

  154. Stream size : 16.0 MiB (0%)

  155. Title : Chs/SUP 简体

  156. Language : Chinese

  157. Default : No

  158. Forced : No

  159. Menu

  160. 00:00:00.000 : en:00:00:00.000

  161. 00:05:45.720 : en:00:05:45.720

  162. 00:12:22.283 : en:00:12:22.283

  163. 00:18:15.636 : en:00:18:15.636

  164. 00:30:20.902 : en:00:30:20.902

  165. 00:41:40.873 : en:00:41:40.873

  166. 00:47:14.582 : en:00:47:14.582

  167. 00:56:26.967 : en:00:56:26.967

  168. 01:01:42.824 : en:01:01:42.824

  169. 01:13:18.394 : en:01:13:18.394

  170. 01:23:04.938 : en:01:23:04.938

  171. 01:34:23.825 : en:01:34:23.825


复制代码


TAGS 武侠 动作 喜剧 古装 /

磁力链:
  • magnet:?xt=urn:btih:CCBE4AAAAB73377A964F827883C7C831D62C27C6
上传的附件:
BT9527电影天堂 1、BT9527电影天堂提供的BT文件均来源于互联网抓取,只供网友学习交流、技术提升使用。
2、我们遵守BitTorrent点对点协议原则,任何版权问题请联系原资源发布商,我们不处理任何版权纠纷,谢谢!如有争议请联系邮箱:BT9527#hotmail.com(#换成@)
3、如果您发现某页面或地址有错误,请联系站长邮箱BT9527#hotmail.com(#换成@),我们会尽快处理。您的热心是对BT9527电影天堂最大的支持。
4、本站建议去正规影院观看电影以支持电影行业发展。
最新回复 (1)
  • chen1026241686 4月前
    2
    好像“我命由我不由天”就是从这里来的

你可以在 登录 or 注册 后,对此帖发表评论!

返回
发新帖