非礼勿视[简繁英字幕].See.No.Evil.2006.1080p.BluRay.DTS.x265-10bit-ENTHD 5.45GB

版主小s 4月前 323

◎译 名 非礼勿视 / 魔影无踪

◎片 名 See No Evil

◎年 代 2006

◎产 地 美国

◎类 别 惊悚 / 恐怖

◎语 言 英语

◎上映日期 2006-05-19

◎IMDb链接 https://www.imdb.com/title/tt0437179/

◎豆瓣评分 6.2/10 (10118人评价)

◎豆瓣链接 https://movie.douban.com/subject/1578663/

◎片 长 84 分钟

◎导 演 葛雷格瑞·达克 Gregory Dark (id:1012587)

◎演 员 克雷格·霍纳 Craig Horner (id:1004636)

迈克尔·J·帕甘 Michael J. Pagan (id:1293793)

史蒂文·维德勒 Steven Vidler (id:1300039)

马修奥肯 Matthew Okine (id:1217550)

Trent Huen Trent Huen (id:1112566)

卡恩 Glenn Jacobs (id:1107824)

杰森·庄 Jason Chong (id:1078362)

萨曼莎·罗博 Samantha Noble (id:1045041)

克里斯蒂娜·怀道尔 Christina Vidal (id:1040639)

瑞切尔·泰勒 Rachael Taylor (id:1009273)

佐伊·文图拉 Zoe Ventoura (id:1310291)

Matt Carroll Matt Carroll (id:1022556)

文斯·麦马汉 Vince McMahon (id:1050035)

泰勒·贝茨 Tyler Bates (id:1278075)

本·诺特 Ben Nott (id:1293303)

Scott Richter Scott Richter (id:1295623)

Mark Cleary Mark Cleary (id:1181746)

Timothy Wood Timothy Wood (id:1170788)

朱利安·帕里 Julian Parry (id:1294018)

Jason Bath Jason Bath (id:1278074)

Derek Wentworth Derek Wentworth (id:1300706)

戴夫·莫利 Dave Morley (id:1305668)

马克·内特尔顿 Mark Nettleton (id:1293077)

Andrew Hellen Andrew Hellen (id:1308416)

Martin Wiseman Martin Wiseman (id:1167158)

◎简 介

八个感化院的青年在两名警官的监督下,前往乡间一所破败的客栈中接受社区服务,但是他们的到来却无意中惊醒一个沉寂已久的恶魔。雅克布?古德奈特 饰(Glen Jacobs 格兰“凯恩”雅克布 饰),身高七英尺,体重四百磅,头骨里嵌着一个生锈的铁盘,锋利的指甲足够戳穿对手眼睛的精神病患者。

雅克布四年前曾被警官弗兰克?威廉姆斯(Steven Vidler 饰)枪击头部,却侥幸逃生。如今弗兰克正是这群青年的督导员。弗兰克和孩子们的出现激起了雅克布屠杀的欲望,他举起巨斧,将客栈变作血腥的屠宰场……

  1. ##### MediaInfo ######

  2. General

  3. Unique ID : 95064396567471889092707157437523943864 (0x4784BC9EE35956B5A67C5087A873E1B8)

  4. Complete name : See.No.Evil.2006.1080p.BluRay.DTS.x265-10bit-ENTHD.mkv

  5. Format : Matroska

  6. Format version : Version 4

  7. File size : 5.45 GiB

  8. Duration : 1 h 24 min

  9. Overall bit rate : 9 241 kb/s

  10. Movie name : See No Evil 2006 1080p BluRay DTS x265-10bit-HDS

  11. Encoded date : UTC 2022-05-31 10:07:29

  12. Writing application : mkvmerge v67.0.0 ('Under Stars') 64-bit

  13. Writing library : libebml v1.4.2 + libmatroska v1.6.4

  14. Video

  15. ID : 1

  16. Format : HEVC

  17. Format/Info : High Efficiency Video Coding

  18. Format profile : Main 10@L5.1@High

  19. Codec ID : V_MPEGH/ISO/HEVC

  20. Duration : 1 h 24 min

  21. Bit rate : 7 680 kb/s

  22. Width : 1 920 pixels

  23. Height : 1 080 pixels

  24. Display aspect ratio : 16:9

  25. Frame rate mode : Constant

  26. Frame rate : 23.976 (24000/1001/53354) FPS

  27. Color space : YUV

  28. Chroma subsampling : 4:2:0

  29. Bit depth : 10 bits

  30. Bits/(Pixel*Frame) : 0.154

  31. Stream size : 4.53 GiB (83%)

  32. Title : meyu@HDSky

  33. Writing library : x265 - H.265/HEVC codec

  34. Default : Yes

  35. Forced : No

  36. Audio

  37. ID : 2

  38. Format : DTS

  39. Format/Info : Digital Theater Systems

  40. Codec ID : A_DTS

  41. Duration : 1 h 24 min

  42. Bit rate mode : Constant

  43. Bit rate : 1 509 kb/s

  44. Channel(s) : 6 channels

  45. Channel layout : C L R Ls Rs LFE

  46. Sampling rate : 48.0 kHz

  47. Frame rate : 93.750 FPS (512 SPF)

  48. Bit depth : 24 bits

  49. Compression mode : Lossy

  50. Stream size : 910 MiB (16%)

  51. Title : English

  52. Language : English

  53. Default : Yes

  54. Forced : No

  55. Text #1

  56. ID : 3

  57. Format : PGS

  58. Muxing mode : zlib

  59. Codec ID : S_HDMV/PGS

  60. Codec ID/Info : Picture based subtitle format used on BDs/HD-DVDs

  61. Duration : 1 h 16 min

  62. Bit rate : 27.2 kb/s

  63. Count of elements : 1825

  64. Stream size : 15.0 MiB (0%)

  65. Title : CHS&ENG

  66. Language : Chinese

  67. Default : Yes

  68. Forced : No

  69. Text #2

  70. ID : 4

  71. Format : PGS

  72. Muxing mode : zlib

  73. Codec ID : S_HDMV/PGS

  74. Codec ID/Info : Picture based subtitle format used on BDs/HD-DVDs

  75. Duration : 1 h 16 min

  76. Bit rate : 27.7 kb/s

  77. Count of elements : 1825

  78. Stream size : 15.2 MiB (0%)

  79. Title : CHT&ENG

  80. Language : Chinese

  81. Default : Yes

  82. Forced : No

  83. Text #3

  84. ID : 5

  85. Format : PGS

  86. Muxing mode : zlib

  87. Codec ID : S_HDMV/PGS

  88. Codec ID/Info : Picture based subtitle format used on BDs/HD-DVDs

  89. Duration : 1 h 16 min

  90. Bit rate : 17.0 kb/s

  91. Count of elements : 1829

  92. Stream size : 9.34 MiB (0%)

  93. Title : CHS

  94. Language : Chinese

  95. Default : Yes

  96. Forced : No

  97. Text #4

  98. ID : 6

  99. Format : PGS

  100. Muxing mode : zlib

  101. Codec ID : S_HDMV/PGS

  102. Codec ID/Info : Picture based subtitle format used on BDs/HD-DVDs

  103. Duration : 1 h 16 min

  104. Bit rate : 17.5 kb/s

  105. Count of elements : 1829

  106. Stream size : 9.62 MiB (0%)

  107. Title : CHT

  108. Language : Chinese

  109. Default : Yes

  110. Forced : No

  111. Text #5

  112. ID : 7

  113. Format : PGS

  114. Muxing mode : zlib

  115. Codec ID : S_HDMV/PGS

  116. Codec ID/Info : Picture based subtitle format used on BDs/HD-DVDs

  117. Duration : 1 h 16 min

  118. Bit rate : 20.2 kb/s

  119. Count of elements : 1825

  120. Stream size : 11.1 MiB (0%)

  121. Title : ENG

  122. Language : English

  123. Default : Yes

  124. Forced : No

  125. Menu

  126. 00:00:00.000 : en:第 01 章

  127. 00:06:43.486 : en:第 02 章

  128. 00:11:38.698 : en:第 03 章

  129. 00:23:46.050 : en:第 04 章

  130. 00:27:34.820 : en:第 05 章

  131. 00:32:05.549 : en:第 06 章

  132. 00:39:52.140 : en:第 07 章

  133. 00:47:35.603 : en:第 08 章

  134. 00:53:42.636 : en:第 09 章

  135. 00:58:29.715 : en:第 10 章

  136. 01:06:46.920 : en:第 11 章

  137. 01:11:33.080 : en:第 12 章


复制代码


TAGS 惊悚 恐怖 /

磁力链:
  • magnet:?xt=urn:btih:7CC51000B38FE24048DDF89AFB75ED14E7B230C6
上传的附件:
BT9527电影天堂 1、BT9527电影天堂提供的BT文件均来源于互联网抓取,只供网友学习交流、技术提升使用。
2、我们遵守BitTorrent点对点协议原则,任何版权问题请联系原资源发布商,我们不处理任何版权纠纷,谢谢!如有争议请联系邮箱:BT9527#hotmail.com(#换成@)
3、如果您发现某页面或地址有错误,请联系站长邮箱BT9527#hotmail.com(#换成@),我们会尽快处理。您的热心是对BT9527电影天堂最大的支持。
4、本站建议去正规影院观看电影以支持电影行业发展。
最新回复 (0)

你可以在 登录 or 注册 后,对此帖发表评论!

返回
发新帖