斯图神父[中文字幕].Father.Stu.2022.1080p.MA.WEBRip.DDP5.1.x264-SMURF 7.37GB

版主小s 27天前 174

◎译 名 斯图神父 / 斯图

◎片 名 Father Stu

◎年 代 2022

◎产 地 美国

◎类 别 剧情

◎语 言 英语

◎上映日期 2022-04-13(加拿大) / 2022-04-15(美国)

◎IMDb链接 https://www.imdb.com/title/tt14439896/

◎豆瓣链接 https://movie.douban.com/subject/35430647/

◎片 长 124分钟

◎导 演 罗莎琳德·罗斯 Rosalind Ross (id:1405423)

◎编 剧 罗莎琳德·罗斯 Rosalind Ross (id:1405423)

◎演 员 梅尔·吉布森 Mel Gibson (id:1054530)

马克·沃尔伯格 Mark Wahlberg (id:1035674)

杰基·韦佛 Jacki Weaver (id:1161151)

安内特·莫翰德鲁 Annet Mahendru (id:1328987)

特蕾莎·鲁伊斯 Teresa Ruiz (id:1404972)

雯特·艾娃·佐莉 Winter Ave Zoli (id:1335423)

阿兰·乌伊 Alain Uy (id:1418057)

耐德·巴拉米 Ned Bellamy (id:1048233)

罗尼·吉恩·贝尔维斯 Ronnie Gene Blevins (id:1018380)

尼科·尼科特拉 Niko Nicotera (id:1402941)

迈克尔·费尔曼 Michael Fairman (id:1032368)

卡洛斯·李尔 Carlos Leal (id:1352500)

安妮·李 Annie Lee (id:1042062)

博·克利里 Bo Cleary (id:1387223)

文森特·M·比肖内 Vincent M. Biscione (id:1001724)

马克·卡西米尔·戴妮奇斯 Mark Casimir Dyniewicz (id:1254429)

詹姆斯·亨特 James Hunter (id:1110968)

约翰尼·曼斯巴赫 Johnny Mansbach (id:1243151)

◎简 介

拳击手斯图尔特(马克·沃尔伯格 饰)因受伤而结束了他的职业生涯。从一场死亡车祸幸存后,他决定把握生命第二次机会,立志做一名牧师。

根据真实人物故事改编。

  1. Video

  2. ID : 1

  3. Format : AVC

  4. Format/Info : Advanced Video Codec

  5. Format profile : High@L4

  6. Format settings : CABAC / 4 Ref Frames

  7. Format settings, CABAC : Yes

  8. Format settings, Reference frames : 4 frames

  9. Codec ID : V_MPEG4/ISO/AVC

  10. Duration : 2 h 4 min

  11. Bit rate : 8 000 kb/s

  12. Width : 1 920 pixels

  13. Height : 1 080 pixels

  14. Display aspect ratio : 16:9

  15. Frame rate mode : Constant

  16. Frame rate : 23.976 (24000/1001/53354) FPS

  17. Color space : YUV

  18. Chroma subsampling : 4:2:0

  19. Bit depth : 8 bits

  20. Scan type : Progressive

  21. Bits/(Pixel*Frame) : 0.161

  22. Stream size : 6.81 GiB (92%)

  23. Writing library : x264 core 164 r3094 bfc87b7

  24. Encoding settings : cabac=1 / ref=4 / deblock=1:-1:-1 / analyse=0x3:0x133 / me=umh / subme=9 / psy=1 / psy_rd=1.00:0.15 / mixed_ref=1 / me_range=16 / chroma_me=1 / trellis=2 / 8x8dct=1 / cqm=0 / deadzone=21,11 / fast_pskip=1 / chroma_qp_offset=-3 / threads=12 / lookahead_threads=1 / sliced_threads=0 / nr=0 / decimate=1 / interlaced=0 / NTMzNTQ= / bluray_compat=0 / stitchable=1 / constrained_intra=0 / bframes=3 / b_pyramid=2 / b_adapt=2 / b_bias=0 / direct=3 / weightb=1 / open_gop=0 / weightp=2 / keyint=48 / keyint_min=4 / scenecut=0 / intra_refresh=0 / rc_lookahead=48 / rc=abr / mbtree=1 / bitrate=8000 / ratetol=1.0 / qcomp=0.60 / qpmin=0 / qpmax=69 / qpstep=4 / vbv_maxrate=8800 / vbv_bufsize=16000 / nal_hrd=none / filler=0 / NTMzNTQ=LmsMAP37EqsCpk / ip_ratio=1.40 / aq=1:1.00

  25. Language : English

  26. Default : Yes

  27. Forced : No

  28. Color range : Limited

  29. Color primaries : BT.709

  30. Transfer characteristics : BT.709

  31. Matrix coefficients : BT.709


  32. Audio

  33. ID : 2

  34. Format : E-AC-3

  35. Format/Info : Enhanced AC-3

  36. Commercial name : Dolby Digital Plus

  37. Codec ID : A_EAC3

  38. Duration : 2 h 4 min

  39. Bit rate mode : Constant

  40. Bit rate : 640 kb/s

  41. Channel(s) : 6 channels

  42. Channel layout : L R C LFE Ls Rs

  43. Sampling rate : 48.0 kHz

  44. Frame rate : 31.250 FPS (1536 SPF)

  45. Compression mode : Lossy

  46. Delay relative to video : 13 ms

  47. Stream size : 570 MiB (8%)

  48. Language : English

  49. Service kind : Complete Main

  50. Default : Yes

  51. Forced : No


  52. Text #1

  53. ID : 3

  54. Format : UTF-8

  55. Codec ID : S_TEXT/UTF8

  56. Codec ID/Info : UTF-8 Plain Text

  57. Duration : 2 h 1 min

  58. Bit rate : 71 b/s

  59. Count of elements : 1920

  60. Stream size : 63.8 KiB (0%)

  61. Language : English

  62. Default : No

  63. Forced : No


  64. Text #2

  65. ID : 4

  66. Format : UTF-8

  67. Codec ID : S_TEXT/UTF8

  68. Codec ID/Info : UTF-8 Plain Text

  69. Duration : 2 h 2 min

  70. Bit rate : 74 b/s

  71. Count of elements : 2062

  72. Stream size : 66.8 KiB (0%)

  73. Title : SDH

  74. Language : English

  75. Default : No

  76. Forced : No


  77. Text #3

  78. ID : 5

  79. Format : UTF-8

  80. Codec ID : S_TEXT/UTF8

  81. Codec ID/Info : UTF-8 Plain Text

  82. Duration : 2 h 3 min

  83. Bit rate : 55 b/s

  84. Count of elements : 1582

  85. Stream size : 50.0 KiB (0%)

  86. Title : Simplified

  87. Language : Chinese

  88. Default : No

  89. Forced : No


  90. Text #4

  91. ID : 6

  92. Format : UTF-8

  93. Codec ID : S_TEXT/UTF8

  94. Codec ID/Info : UTF-8 Plain Text

  95. Duration : 2 h 3 min

  96. Bit rate : 51 b/s

  97. Count of elements : 1582

  98. Stream size : 46.8 KiB (0%)

  99. Title : Traditional

  100. Language : Chinese

  101. Default : No

  102. Forced : No


  103. Text #5

  104. ID : 7

  105. Format : UTF-8

  106. Codec ID : S_TEXT/UTF8

  107. Codec ID/Info : UTF-8 Plain Text

  108. Duration : 2 h 3 min

  109. Bit rate : 55 b/s

  110. Count of elements : 1350

  111. Stream size : 49.8 KiB (0%)

  112. Language : Danish

  113. Default : No

  114. Forced : No


  115. Text #6

  116. ID : 8

  117. Format : UTF-8

  118. Codec ID : S_TEXT/UTF8

  119. Codec ID/Info : UTF-8 Plain Text

  120. Duration : 2 h 3 min

  121. Bit rate : 57 b/s

  122. Count of elements : 1530

  123. Stream size : 51.8 KiB (0%)

  124. Language : Finnish

  125. Default : No

  126. Forced : No


  127. Text #7

  128. ID : 9

  129. Format : UTF-8

  130. Codec ID : S_TEXT/UTF8

  131. Codec ID/Info : UTF-8 Plain Text

  132. Duration : 2 h 3 min

  133. Bit rate : 58 b/s

  134. Count of elements : 1571

  135. Stream size : 53.0 KiB (0%)

  136. Language : French

  137. Default : No

  138. Forced : No


  139. Text #8

  140. ID : 10

  141. Format : UTF-8

  142. Codec ID : S_TEXT/UTF8

  143. Codec ID/Info : UTF-8 Plain Text

  144. Duration : 2 h 3 min

  145. Bit rate : 55 b/s

  146. Count of elements : 1570

  147. Stream size : 49.9 KiB (0%)

  148. Language : Italian

  149. Default : No

  150. Forced : No


  151. Text #9

  152. ID : 11

  153. Format : UTF-8

  154. Codec ID : S_TEXT/UTF8

  155. Codec ID/Info : UTF-8 Plain Text

  156. Duration : 2 h 3 min

  157. Bit rate : 53 b/s

  158. Count of elements : 1401

  159. Stream size : 47.9 KiB (0%)

  160. Language : Dutch

  161. Default : No

  162. Forced : No


  163. Text #10

  164. ID : 12

  165. Format : UTF-8

  166. Codec ID : S_TEXT/UTF8

  167. Codec ID/Info : UTF-8 Plain Text

  168. Duration : 2 h 3 min

  169. Bit rate : 48 b/s

  170. Count of elements : 1562

  171. Stream size : 43.7 KiB (0%)

  172. Language : Norwegian

  173. Default : No

  174. Forced : No


  175. Text #11

  176. ID : 13

  177. Format : UTF-8

  178. Codec ID : S_TEXT/UTF8

  179. Codec ID/Info : UTF-8 Plain Text

  180. Duration : 2 h 3 min

  181. Bit rate : 57 b/s

  182. Count of elements : 1468

  183. Stream size : 52.2 KiB (0%)

  184. Language : Swedish

  185. Default : No

  186. Forced : No


  187. Text #12

  188. ID : 14

  189. Format : UTF-8

  190. Codec ID : S_TEXT/UTF8

  191. Codec ID/Info : UTF-8 Plain Text

  192. Duration : 2 h 3 min

  193. Bit rate : 151 b/s

  194. Count of elements : 1582

  195. Stream size : 136 KiB (0%)

  196. Language : Thai

  197. Default : No

  198. Forced : No


  199. Text #13

  200. ID : 15

  201. Format : UTF-8

  202. Codec ID : S_TEXT/UTF8

  203. Codec ID/Info : UTF-8 Plain Text

  204. Duration : 2 h 3 min

  205. Bit rate : 68 b/s

  206. Count of elements : 1577

  207. Stream size : 62.0 KiB (0%)

  208. Language : Vietnamese

  209. Default : No

  210. Forced : No


  211. Menu

  212. 00:00:00.000 : en:Chapter 1

  213. 00:09:13.553 : en:Chapter 2

  214. 00:17:30.592 : en:Chapter 3

  215. 00:24:40.772 : en:Chapter 4

  216. 00:32:16.061 : en:Chapter 5

  217. 00:41:46.757 : en:Chapter 6

  218. 00:48:24.321 : en:Chapter 7

  219. 00:56:25.719 : en:Chapter 8

  220. 01:03:51.790 : en:Chapter 9

  221. 01:13:25.322 : en:Chapter 10

  222. 01:21:04.990 : en:Chapter 11

  223. 01:28:55.252 : en:Chapter 12

  224. 01:36:49.518 : en:Chapter 13

  225. 01:42:51.088 : en:Chapter 14

  226. 01:50:26.793 : en:Chapter 15

  227. 01:54:29.328 : en:Chapter 16

复制代码

  


TAGS 剧情

磁力链:
  • magnet:?xt=urn:btih:97AC11DA9B34FAFA73899D6FED16EF461A0ECD4C
上传的附件:
BT9527电影天堂 1、BT9527电影天堂提供的BT文件均来源于互联网抓取,只供网友学习交流、技术提升使用。
2、我们遵守BitTorrent点对点协议原则,任何版权问题请联系原资源发布商,我们不处理任何版权纠纷,谢谢!如有争议请联系邮箱:BT9527#hotmail.com(#换成@)
3、如果您发现某页面或地址有错误,请联系站长邮箱BT9527#hotmail.com(#换成@),我们会尽快处理。您的热心是对BT9527电影天堂最大的支持。
4、本站建议去正规影院观看电影以支持电影行业发展。
最新回复 (0)

你可以在 登录 or 注册 后,对此帖发表评论!

返回
发新帖