瑜伽学院[中文字幕].Yoga.2009.1080p.WEB-DL.AAC.2.0.H.264-CTRLWEB 2.63GB

版主小s 1月前 1341

◎译 名 瑜伽学院 / Yoga

◎片 名 ????

◎年 代 2009

◎产 地 韩国

◎类 别 恐怖

◎语 言 韩语

◎上映日期 2009-08-20(韩国)

◎IMDb链接 https://www.imdb.com/title/tt1599378/

◎豆瓣评分 4.8/10 (4837人评价)

◎豆瓣链接 https://movie.douban.com/subject/3804488/

◎导 演 尹载然 Jae-yeon Yun (id:1319748)

◎编 剧 尹载然 Jae-yeon Yun (id:1319748)

李镕莲 Yong-yeon Lee (id:1390168)

◎演 员 柳真 Yoo-jin (id:1197284)

朴寒星 Han-byeol Park (id:1042325)

李英珍 Young-jin Lee (id:1034439)

车秀妍 Su-yeon Cha (id:1023715)

金惠娜 Hye-na Kim (id:1042834)

金宝英 Bo-young Kim (id:1446752)

张利雨 Jang Liu (id:1381688)

郑仁基 In-gi Jeong (id:1320459)

李慧尚 Hye-sang Lee (id:1463606)

李泰宪 Lee Tae-hun (id:1337776)

李庸基 Yong-Gi Lee (id:1314650)

◎简 介

电视购物女主持人金孝真(柳真 饰)人生陷入困境:年轻后辈青春美貌兼备,势头逼人;男友是个不成器的电影导演,百无一用。在一次老友聚会时,当年备受嘲笑的丑小鸭善花(李英珍 饰)竟变成绝世美女,这令孝真她们甚为惊奇。事业面临危机,孝真转而向善花求教美颜秘诀。在善花的指引下,她来到简美希所开办的瑜伽学院申请为期一周的深化训练。

孝真和尚妍珠、李宝拉等四名女孩一同进入学院,她们被要求严格遵守这里各种奇怪的规则,更要与外界切断一切联系。在接下来的一周时间里,她们各自为了心中理想的美貌而进行魔鬼训练,却不得不去面对恐怖黑暗的一面……

  1. ##### MediaInfo ######

  2. General

  3. Unique ID : 262600829333095474249087703979428604363 (0xC58F147F082AFE07F9628033C6BEE9CB)

  4. Complete name : Yoga.2009.1080p.WEB-DL.AAC.2.0.H.264-CTRLWEB.mkv

  5. Format : Matroska

  6. Format version : Version 4

  7. File size : 2.63 GiB

  8. Duration : 1 h 38 min

  9. Overall bit rate : 3 831 kb/s

  10. Encoded date : UTC 2022-05-26 05:51:46

  11. Writing application : mkvmerge v65.0.0 ('Too Much') 64-bit

  12. Writing library : libebml v1.4.2 + libmatroska v1.6.4

  13. Video

  14. ID : 1

  15. Format : AVC

  16. Format/Info : Advanced Video Codec

  17. Format profile : High@L4.1

  18. Format settings : CABAC / 1 Ref Frames

  19. Format settings, CABAC : Yes

  20. Format settings, Reference frames : 1 frame

  21. Format settings, GOP : M=1, N=60

  22. Codec ID : V_MPEG4/ISO/AVC

  23. Duration : 1 h 38 min

  24. Bit rate mode : Constant

  25. Bit rate : 3 703 kb/s

  26. Nominal bit rate : 4 000 kb/s

  27. Width : 1 920 pixels

  28. Height : 1 080 pixels

  29. Display aspect ratio : 16:9

  30. Frame rate mode : Constant

  31. Frame rate : 29.970 (30000/1001/53354) FPS

  32. Color space : YUV

  33. Chroma subsampling : 4:2:0

  34. Bit depth : 8 bits

  35. Scan type : Progressive

  36. Bits/(Pixel*Frame) : 0.060

  37. Stream size : 2.54 GiB (97%)

  38. Default : Yes

  39. Forced : No

  40. Audio

  41. ID : 2

  42. Format : AAC LC

  43. Format/Info : Advanced Audio Codec Low Complexity

  44. Codec ID : A_AAC-2

  45. Duration : 1 h 38 min

  46. Bit rate : 125 kb/s

  47. Channel(s) : 2 channels

  48. Channel layout : L R

  49. Sampling rate : 48.0 kHz

  50. Frame rate : 46.875 FPS (1024 SPF)

  51. Compression mode : Lossy

  52. Stream size : 88.2 MiB (3%)

  53. Default : Yes

  54. Forced : No

  55. Text

  56. ID : 3

  57. Format : UTF-8

  58. Codec ID : S_TEXT/UTF8

  59. Codec ID/Info : UTF-8 Plain Text

  60. Duration : 1 h 32 min

  61. Bit rate : 23 b/s

  62. Count of elements : 701

  63. Stream size : 15.7 KiB (0%)

  64. Title : Traditional (SDH)

  65. Language : Chinese

  66. Default : No

  67. Forced : No


复制代码


TAGS 恐怖

磁力链:
  • magnet:?xt=urn:btih:3A3618DADBA35F7AE9DB4DE24504FDA8C798960B
上传的附件:
BT9527电影天堂 1、BT9527电影天堂提供的BT文件均来源于互联网抓取,只供网友学习交流、技术提升使用。
2、我们遵守BitTorrent点对点协议原则,任何版权问题请联系原资源发布商,我们不处理任何版权纠纷,谢谢!如有争议请联系邮箱:BT9527#hotmail.com(#换成@)
3、如果您发现某页面或地址有错误,请联系站长邮箱BT9527#hotmail.com(#换成@),我们会尽快处理。您的热心是对BT9527电影天堂最大的支持。
4、本站建议去正规影院观看电影以支持电影行业发展。
最新回复 (0)

你可以在 登录 or 注册 后,对此帖发表评论!

返回
发新帖