纽瓦克众圣[中文字幕].The.Many.Saints.of.Newark.2021.2160p.HDR.UHD.BluRay.DD5.1.x265-10bit-ENTHD 8.70GB

版主小s 4月前 276

◎译 名 纽瓦克众圣 / 纽瓦克诸圣 / 纽瓦克的诸多圣人 / 黑道家族前传 / 纽瓦克众圣徒:黑道家族外传 / The Many Saints of Newark: A Sopranos Story

◎片 名 The Many Saints of Newark

◎年 代 2021

◎产 地 美国

◎类 别 剧情 / 犯罪

◎语 言 英语

◎上映日期 2021-10-01(美国/美国网络)

◎IMDb链接 https://www.imdb.com/title/tt8110232/

◎豆瓣评分 6.1/10 (1224人评价)

◎豆瓣链接 https://movie.douban.com/subject/30165027/

◎片 长 120分钟

◎导 演 阿兰·泰勒 Alan Taylor (id:1298974)

◎编 剧 劳伦斯·康纳尔 Lawrence Konner (id:1323076)

大卫·切斯 David Chase (id:1022864)

◎演 员 迈克尔·甘多菲尼 Michael Gandolfini (id:1393412)

亚历桑德罗·尼沃拉 Alessandro Nivola (id:1009310)

维拉·法米加 Vera Farmiga (id:1053584)

乔·博恩瑟 Jon Bernthal (id:1049679)

小莱斯利·奥多姆 Leslie Odom Jr. (id:1179291)

寇瑞·斯托尔 Corey Stoll (id:1315557)

比利·马格努森 Billy Magnussen (id:1239332)

约翰·马加罗 John Magaro (id:1317515)

雷·利奥塔 Ray Liotta (id:1036326)

达里尔·爱德华兹 Daryl Edwards (id:1433070)

尼克·瓦莱隆加 Nick Vallelonga (id:1050517)

马提亚·孔福尔迪 Mattea Conforti (id:1402969)

德琼·瓦茨 De'Jon Watts (id:1402797)

法龙·索尔兹伯里 Faron Salisbury (id:1393300)

杰玛·特雷尔·加德纳 Germar Terrell Gardner (id:1393104)

安德鲁·波尔克 Andrew Polk (id:1127199)

肯·斯拉迪克 Ken Sladyk (id:1232050)

Sasha Morfaw Sasha Morfaw (id:1385585)

小戴维·M·桑多瓦尔 David M Sandoval Jr. (id:1430752)

Audrey Bennett Audrey Bennett (id:1449566)

伊恩·安特曼 Ian Unterman (id:1349323)

小弗洛伊德·安东尼·约翰 Floyd Anthony Johns Jr. (id:1392722)

克劳黛特·拉利 Claudette Lali (id:1237360)

斯蒂芬妮·林恩·威尔逊 Stephanie Lynn Wilson (id:1439032)

迈克尔·温·古查多 Michael Wren Gucciardo (id:1388391)

阿梅利亚·福勒 Amelia Fowler (id:1371016)

克里斯·勒潘塔 Chris LaPanta (id:1258872)

Edward Sass III Edward Sass III (id:1394473)

克雷格·格拉提 Craig Geraghty (id:1371372)

迈克尔·泽加斯基 Michael Zegarski (id:1386537)

Germir Robinson (id:1260651)

◎简 介

根据HBO大热剧集《黑道家族》改编的电影将问世,新线正在打造该剧前传电影[纽瓦克圣人](The Many Saints of Newark,暂译)。原剧编剧兼监制大卫·切斯及编剧劳伦斯·康纳尔操刀新片剧本,大卫·切斯任制片。影片故事背景设定在上世纪60年代纽瓦克暴力活动猖獗地带,黑帮争斗频发。该剧于1999年至2007年播出,共六季,获21项艾美奖、5项金球奖。原剧主演詹姆斯·甘多菲尼、弗兰克·文森特相继于2013年、去年去世。据悉原剧中多个粉丝熟悉的形象将现身大银幕。

  1. ##### MediaInfo ######

  2. General

  3. Unique ID : 161975444200355373163522962302094348544 (0x79DB55F89146B623C4A038AADE0D1100)

  4. Complete name : The.Many.Saints.of.Newark.2021.2160p.HDR.UHD.BluRay.DD5.1.x265-10bit-ENTHD.mkv

  5. Format : Matroska

  6. Format version : Version 4

  7. File size : 8.70 GiB

  8. Duration : 2 h 0 min

  9. Overall bit rate : 10.4 Mb/s

  10. Movie name : The Many Saints of Newark 2021 2160p HDR UHD BluRay DD5.1 x265-10bit-HDS

  11. Encoded date : UTC 2022-05-30 23:32:07

  12. Writing application : mkvmerge v67.0.0 ('Under Stars') 64-bit

  13. Writing library : libebml v1.4.2 + libmatroska v1.6.4

  14. Video

  15. ID : 1

  16. Format : HEVC

  17. Format/Info : High Efficiency Video Coding

  18. Format profile : Main 10@L5.1@High

  19. HDR format : SMPTE ST 2086, HDR10 compatible

  20. Codec ID : V_MPEGH/ISO/HEVC

  21. Duration : 2 h 0 min

  22. Bit rate : 9 876 kb/s

  23. Width : 3 840 pixels

  24. Height : 1 608 pixels

  25. Display aspect ratio : 2.40:1

  26. Frame rate mode : Constant

  27. Frame rate : 23.976 (24000/1001/53354) FPS

  28. Color space : YUV

  29. Chroma subsampling : 4:2:0

  30. Bit depth : 10 bits

  31. Bits/(Pixel*Frame) : 0.067

  32. Stream size : 8.30 GiB (95%)

  33. Title : @HDSky

  34. Writing library : x265 - H.265/HEVC codec

  35. Default : Yes

  36. Forced : No

  37. Color range : Limited

  38. Color primaries : BT.2020

  39. Transfer characteristics : PQ

  40. Matrix coefficients : BT.2020 non-constant

  41. Mastering display color primaries : Display P3

  42. Mastering display luminance : min: 0.0020 cd/m2, max: 1000 cd/m2

  43. Maximum Content Light Level : 739 cd/m2

  44. Maximum Frame-Average Light Level : 331 cd/m2

  45. Audio

  46. ID : 2

  47. Format : AC-3

  48. Format/Info : Audio Coding 3

  49. Commercial name : Dolby Digital

  50. Codec ID : A_AC3

  51. Duration : 2 h 0 min

  52. Bit rate mode : Constant

  53. Bit rate : 448 kb/s

  54. Channel(s) : 6 channels

  55. Channel layout : L R C LFE Ls Rs

  56. Sampling rate : 48.0 kHz

  57. Frame rate : 31.250 FPS (1536 SPF)

  58. Compression mode : Lossy

  59. Stream size : 385 MiB (4%)

  60. Title : English

  61. Language : English

  62. Service kind : Complete Main

  63. Default : Yes

  64. Forced : No

  65. Text #1

  66. ID : 3

  67. Format : PGS

  68. Muxing mode : zlib

  69. Codec ID : S_HDMV/PGS

  70. Codec ID/Info : Picture based subtitle format used on BDs/HD-DVDs

  71. Duration : 1 h 59 min

  72. Bit rate : 29.8 kb/s

  73. Count of elements : 2858

  74. Stream size : 25.5 MiB (0%)

  75. Title : CHS

  76. Language : Chinese

  77. Default : Yes

  78. Forced : No

  79. Text #2

  80. ID : 4

  81. Format : PGS

  82. Muxing mode : zlib

  83. Codec ID : S_HDMV/PGS

  84. Codec ID/Info : Picture based subtitle format used on BDs/HD-DVDs

  85. Duration : 1 h 59 min

  86. Bit rate : 30.4 kb/s

  87. Count of elements : 2858

  88. Stream size : 26.0 MiB (0%)

  89. Title : CHT

  90. Language : Chinese

  91. Default : Yes

  92. Forced : No

  93. Menu

  94. 00:00:00.000 : en:第 01 章

  95. 00:11:54.213 : en:第 02 章

  96. 00:21:18.277 : en:第 03 章

  97. 00:31:28.970 : en:第 04 章

  98. 00:40:19.459 : en:第 05 章

  99. 00:50:07.838 : en:第 06 章

  100. 01:00:41.346 : en:第 07 章

  101. 01:10:19.882 : en:第 08 章

  102. 01:19:52.204 : en:第 09 章

  103. 01:30:13.325 : en:第 10 章

  104. 01:39:26.502 : en:第 11 章

  105. 01:47:53.217 : en:第 12 章

  106. 01:54:00.667 : en:第 13 章


复制代码


TAGS 剧情 犯罪 /

磁力链:
  • magnet:?xt=urn:btih:EC7DC04D50F208EE7E4EB1F3683F738ED3AB45B0
上传的附件:
BT9527电影天堂 1、BT9527电影天堂提供的BT文件均来源于互联网抓取,只供网友学习交流、技术提升使用。
2、我们遵守BitTorrent点对点协议原则,任何版权问题请联系原资源发布商,我们不处理任何版权纠纷,谢谢!如有争议请联系邮箱:BT9527#hotmail.com(#换成@)
3、如果您发现某页面或地址有错误,请联系站长邮箱BT9527#hotmail.com(#换成@),我们会尽快处理。您的热心是对BT9527电影天堂最大的支持。
4、本站建议去正规影院观看电影以支持电影行业发展。
最新回复 (0)

你可以在 登录 or 注册 后,对此帖发表评论!

返回