搜索[中文字幕].Search.Out.2020.1080p.WEB-DL.AAC.2.0.H.264-CTRLWEB 2.41GB

版主小s 4月前 563

◎译 名 搜索 / Search Out

◎片 名 ?? ??

◎年 代 2020

◎产 地 韩国

◎类 别 惊悚

◎语 言 韩语

◎上映日期 2020-04-15(韩国)

◎IMDb链接 https://www.imdb.com/title/tt12380870/

◎豆瓣评分 4.6/10 (562人评价)

◎豆瓣链接 https://movie.douban.com/subject/35005959/

◎片 长 92分钟

◎演 员 李时言 Si-eon Lee (id:1323412)

金圣喆 Kim Sung-Cheol (id:1385903)

许嘉允 Ga-yoon Heo (id:1438610)

金瑞妍 Kim Seo-yeon (id:1441108)

朱时贤 Ju Si-hyun (id:1443586)

李恩彩 Eun-Chae Lee (id:1456756)

◎简 介

改编2013年俄罗斯社群网路流传的「蓝鲸游戏」。电影描述同住考试院的晟敏与俊赫,某天获知考试院里和他们关系良好的妹妹自杀了,当晚晟敏却收到了那个女孩SNS传来的讯息。两人开始质疑这场自杀背后是否有阴谋,他们找上骇客Nuri,欲从女孩的SNS寻找蛛丝马迹。电影想传达的议题正是:SNS对我们来说到底是什么存在?日常传送讯息的SNS曾几何时成为了犯罪管道?

  1. ##### MediaInfo ######

  2. General

  3. Unique ID : 97635577994732262439168317874261086922 (0x4973EDA704EB8AD46ACB5A9A50EA52CA)

  4. Complete name : Search.Out.2020.1080p.WEB-DL.AAC.2.0.H.264-CTRLWEB.mkv

  5. Format : Matroska

  6. Format version : Version 4

  7. File size : 2.41 GiB

  8. Duration : 1 h 32 min

  9. Overall bit rate : 3 723 kb/s

  10. Encoded date : UTC 2022-05-26 05:45:24

  11. Writing application : mkvmerge v65.0.0 ('Too Much') 64-bit

  12. Writing library : libebml v1.4.2 + libmatroska v1.6.4

  13. Video

  14. ID : 1

  15. Format : AVC

  16. Format/Info : Advanced Video Codec

  17. Format profile : High@L4.1

  18. Format settings : CABAC / 1 Ref Frames

  19. Format settings, CABAC : Yes

  20. Format settings, Reference frames : 1 frame

  21. Format settings, GOP : M=1, N=60

  22. Codec ID : V_MPEG4/ISO/AVC

  23. Duration : 1 h 32 min

  24. Bit rate mode : Constant

  25. Bit rate : 3 595 kb/s

  26. Nominal bit rate : 4 000 kb/s

  27. Width : 1 920 pixels

  28. Height : 1 080 pixels

  29. Display aspect ratio : 16:9

  30. Frame rate mode : Constant

  31. Frame rate : 29.970 (30000/1001/53354) FPS

  32. Color space : YUV

  33. Chroma subsampling : 4:2:0

  34. Bit depth : 8 bits

  35. Scan type : Progressive

  36. Bits/(Pixel*Frame) : 0.058

  37. Stream size : 2.32 GiB (97%)

  38. Default : Yes

  39. Forced : No

  40. Audio

  41. ID : 2

  42. Format : AAC LC

  43. Format/Info : Advanced Audio Codec Low Complexity

  44. Codec ID : A_AAC-2

  45. Duration : 1 h 32 min

  46. Bit rate : 125 kb/s

  47. Channel(s) : 2 channels

  48. Channel layout : L R

  49. Sampling rate : 48.0 kHz

  50. Frame rate : 46.875 FPS (1024 SPF)

  51. Compression mode : Lossy

  52. Stream size : 83.0 MiB (3%)

  53. Default : Yes

  54. Forced : No

  55. Text

  56. ID : 3

  57. Format : UTF-8

  58. Codec ID : S_TEXT/UTF8

  59. Codec ID/Info : UTF-8 Plain Text

  60. Duration : 1 h 28 min

  61. Bit rate : 43 b/s

  62. Count of elements : 1116

  63. Stream size : 28.3 KiB (0%)

  64. Title : Traditional (SDH)

  65. Language : Chinese

  66. Default : No

  67. Forced : No


复制代码


TAGS 惊悚

磁力链:
  • magnet:?xt=urn:btih:78A3270B02BC1DD81A515164F71838E76FFEF13D
上传的附件:
BT9527电影天堂 1、BT9527电影天堂提供的BT文件均来源于互联网抓取,只供网友学习交流、技术提升使用。
2、我们遵守BitTorrent点对点协议原则,任何版权问题请联系原资源发布商,我们不处理任何版权纠纷,谢谢!如有争议请联系邮箱:BT9527#hotmail.com(#换成@)
3、如果您发现某页面或地址有错误,请联系站长邮箱BT9527#hotmail.com(#换成@),我们会尽快处理。您的热心是对BT9527电影天堂最大的支持。
4、本站建议去正规影院观看电影以支持电影行业发展。
最新回复 (0)

你可以在 登录 or 注册 后,对此帖发表评论!

返回