大侦探皮卡丘[国粤英多音轨/简体字幕].Pokemon.Detective.Pikachu.2019.1080p.BluRay.x265.10bit.DTS-HomeHD 8.16GB

版主小s 28天前 110

◎译 名 大侦探皮卡丘 / 精灵宝可梦:大侦探皮卡丘 / POKéMON 名侦探皮卡丘(台) / 宠物小精灵之名侦探皮卡丘 / 精灵宝可梦之名侦探皮卡丘 / 宠物小精灵 / 宠物小精灵真人版 / 精灵宝可梦 / 名侦探皮卡丘 / Detective Pikachu / Pokemon

◎片 名 Pokémon Detective Pikachu

◎年 代 2019

◎产 地 美国 / 日本 / 英国 / 加拿大

◎类 别 喜剧 / 动画 / 奇幻 / 冒险

◎语 言 英语

◎上映日期 2019-05-10(美国/中国大陆)

◎IMDb链接 https://www.imdb.com/title/tt5884052/

◎豆瓣评分 6.4/10 (364528人评价)

◎豆瓣链接 https://movie.douban.com/subject/26835471/

◎片 长 104分钟

◎导 演 罗伯·莱特曼 Rob Letterman (id:1304840)

◎编 剧 丹·埃尔南德斯 Dan Hernandez (id:1416432)

罗伯·莱特曼 Rob Letterman (id:1304840)

德里克·康纳利 Derek Connolly (id:1336443)

尼科尔·帕尔曼 Nicole Perlman (id:1332275)

田尻智 Satoshi Tajiri (id:1051550)

增田顺一 Junichi Masuda (id:1449910)

杉森建 Ken Sugimori (id:1449911)

亚历克斯·赫什 Alex Hirsch (id:1351827)

本吉·萨米特 Benji Samit (id:1011534)

◎演 员 瑞安·雷诺兹 Ryan Reynolds (id:1053623)

贾斯蒂斯·史密斯 Justice Smith (id:1350981)

凯瑟琳·纽顿 Kathryn Newton (id:1174320)

克里斯·吉尔 Chris Geere (id:1208361)

比尔·奈伊 Bill Nighy (id:1041002)

渡边谦 Ken Watanabe (id:1027181)

瑞塔·奥拉 Rita Ora (id:1342695)

苏琪·沃特豪斯 Suki Waterhouse (id:1348252)

卡兰·索尼 Karan Soni (id:1329261)

普莉安卡·伯福德 Priyanga Burford (id:1372007)

乔丹·朗 Jordan Long (id:1348269)

贝恩·科拉科 Bern Colla?o (id:1394212)

卡迪夫·克尔万 Kadiff Kirwan (id:1378723)

奥马尔·查帕罗 Omar Chaparro (id:1201649)

伯纳多·桑托斯 Bernardo Santos (id:1390686)

大谷育江 Ikue Ootani (id:1025401)

露丝·霍洛克斯 Ruth Horrocks (id:1397361)

丹尼尔·厄根 Daniel Eghan (id:1367202)

贾格·帕特尔 Jag Patel (id:1392994)

查利·蕾娅·埃斯奎尔 Charlie Rhea Esquér (id:1392989)

黛博拉·洛克 Deborah Rock (id:1395006)

所罗门·塔伊沃·贾斯提费尔德 Solomon Taiwo Justified (id:1367743)

尼克·欧文福特 Nick Owenford (id:1362807)

凯文·马塔迪恩 Kevin Matadeen (id:1389253)

迪柏洛 Diplo (id:1385642)

竹内凉真 Ryoma Takeuchi (id:1343724)

雷佳音 Jiayin Lei (id:1312940)

西蒙娜·阿什利 Simone Ashley (id:1408153)

石原恒和 Tsunekazu Ishihara (id:1421845)

阵内一真 Jinnouchi Kazuma (id:1415354)

亨利·杰克曼 Henry Jackman (id:1315635)

苏季·哈尔曼 Suzie Harman (id:1453100)

吉恩·吉尔平 Jean Gilpin (id:1419991)

弗朗西斯科·丹尼尔·利纳·伊达尔戈 Francisco Daniel Leana Hidalgo (id:1416839)

温·李拉桑塔纳 Win Leerasanthanah (id:1419121)

◎简 介

好莱坞真人电影《大侦探皮卡丘》(暂译)讲述了蒂姆·古德曼(贾 斯 提·史密斯饰) 为寻找下落不明的父亲来到莱姆市,意外与父亲的前宝可梦搭档大侦探皮卡丘相遇,并惊讶地发现自己是唯一能听懂皮卡丘说话的人类,他们决定组队踏上揭开真相的刺激冒险之路。探案过程中他们邂逅了各式各样 的宝可梦,并意外发现了一个足以毁灭整个宝可梦宇宙的惊天阴谋。该电影改编自任天堂3DS同名游戏,由罗伯·莱特曼导演,瑞安·雷诺兹为大侦探皮卡丘配音,贾斯提斯·史密斯、凯瑟琳·纽顿等主演。

◎获奖情况 (共2项)

第47届动画安妮奖 (2020)

最佳真人电影动画角色(提名)

第5届豆瓣电影年度榜单 (2018)

最值得期待的外语电影(提名)

  1. ##### MediaInfo ######

  2. General

  3. Unique ID : 219808823021079109276346079217319635624 (0xA55DA3B1A9E044D198BE84CEA56B6AA8)

  4. Complete name : Pokemon.Detective.Pikachu.2019.1080p.BluRay.x265.10bit.DTS-HomeHD.mkv

  5. Format : Matroska

  6. Format version : Version 1

  7. File size : 8.16 GiB

  8. Duration : 1 h 44 min

  9. Overall bit rate : 11.2 Mb/s

  10. Encoded date : UTC 2022-05-30 09:34:28

  11. Writing application : mkvmerge v2.2.0 ('Turn It On Again') built on Mar 4 2008 13:20:25

  12. Writing library : libebml v0.7.7 + libmatroska v0.8.1

  13. Attachments : MSYH.TTF / MSYH_chscht.ttf / MSYHBD.TTF / tahoma.ttf

  14. Video

  15. ID : 1

  16. Format : HEVC

  17. Format/Info : High Efficiency Video Coding

  18. Format profile : Main 10@L4@Main

  19. Codec ID : V_MPEGH/ISO/HEVC

  20. Duration : 1 h 44 min

  21. Bit rate : 8 358 kb/s

  22. Width : 1 920 pixels

  23. Height : 804 pixels

  24. Display aspect ratio : 2.40:1

  25. Frame rate mode : Constant

  26. Frame rate : 23.976 (24000/1001/53354) FPS

  27. Color space : YUV

  28. Chroma subsampling : 4:2:0

  29. Bit depth : 10 bits

  30. Bits/(Pixel*Frame) : 0.226

  31. Stream size : 6.10 GiB (75%)

  32. Language : English

  33. Default : Yes

  34. Forced : No

  35. Audio #1

  36. ID : 2

  37. Format : DTS

  38. Format/Info : Digital Theater Systems

  39. Codec ID : A_DTS

  40. Duration : 1 h 44 min

  41. Bit rate mode : Constant

  42. Bit rate : 1 509 kb/s

  43. Channel(s) : 6 channels

  44. Channel layout : C L R Ls Rs LFE

  45. Sampling rate : 48.0 kHz

  46. Frame rate : 93.750 FPS (512 SPF)

  47. Bit depth : 16 bits

  48. Compression mode : Lossy

  49. Stream size : 1.10 GiB (13%)

  50. Title : 英语

  51. Language : English

  52. Default : No

  53. Forced : No

  54. Statistics Tags Issue : mkvmerge v67.0.0 ('Under Stars') 64-bit 2022-05-27 07:45:54 / mkvmerge v2.2.0 ('Turn It On Again') built on Mar 4 2008 13:20:25 2022-05-30 09:34:28

  55. FromStats_BitRate : 1509000

  56. FromStats_Duration : 01:44:29.099000000

  57. FromStats_FrameCount : 587728

  58. FromStats_StreamSize : 1182509464

  59. Audio #2

  60. ID : 3

  61. Format : AC-3

  62. Format/Info : Audio Coding 3

  63. Commercial name : Dolby Digital

  64. Codec ID : A_AC3

  65. Duration : 1 h 44 min

  66. Bit rate mode : Constant

  67. Bit rate : 640 kb/s

  68. Channel(s) : 6 channels

  69. Channel layout : L R C LFE Ls Rs

  70. Sampling rate : 48.0 kHz

  71. Frame rate : 31.250 FPS (1536 SPF)

  72. Compression mode : Lossy

  73. Stream size : 478 MiB (6%)

  74. Title : 中影公映国语

  75. Language : Chinese

  76. Service kind : Complete Main

  77. Default : Yes

  78. Forced : No

  79. Statistics Tags Issue : mkvmerge v67.0.0 ('Under Stars') 64-bit 2022-05-27 07:45:54 / mkvmerge v2.2.0 ('Turn It On Again') built on Mar 4 2008 13:20:25 2022-05-30 09:34:28

  80. FromStats_BitRate : 640000

  81. FromStats_Duration : 01:44:28.448000000

  82. FromStats_FrameCount : 195889

  83. FromStats_StreamSize : 501475840

  84. Audio #3

  85. ID : 4

  86. Format : AC-3

  87. Format/Info : Audio Coding 3

  88. Commercial name : Dolby Digital

  89. Codec ID : A_AC3

  90. Duration : 1 h 44 min

  91. Bit rate mode : Constant

  92. Bit rate : 448 kb/s

  93. Channel(s) : 6 channels

  94. Channel layout : L R C LFE Ls Rs

  95. Sampling rate : 48.0 kHz

  96. Frame rate : 31.250 FPS (1536 SPF)

  97. Compression mode : Lossy

  98. Stream size : 335 MiB (4%)

  99. Title : 粤语

  100. Language : Chinese

  101. Service kind : Complete Main

  102. Default : No

  103. Forced : No

  104. Statistics Tags Issue : mkvmerge v67.0.0 ('Under Stars') 64-bit 2022-05-27 07:45:54 / mkvmerge v2.2.0 ('Turn It On Again') built on Mar 4 2008 13:20:25 2022-05-30 09:34:28

  105. FromStats_BitRate : 448000

  106. FromStats_Duration : 01:44:29.120000000

  107. FromStats_FrameCount : 195910

  108. FromStats_StreamSize : 351070720

  109. Text

  110. ID : 5

  111. Format : ASS

  112. Codec ID : S_TEXT/ASS

  113. Codec ID/Info : Advanced Sub Station Alpha

  114. Compression mode : Lossless

  115. Title : 公映简体中字

  116. Language : Chinese

  117. Default : Yes

  118. Forced : No


复制代码


TAGS 奇幻 冒险 动画 喜剧 /

磁力链:
  • magnet:?xt=urn:btih:B1E56D895F200D6D9FD16B2267707DD26DE52206
上传的附件:
BT9527电影天堂 1、BT9527电影天堂提供的BT文件均来源于互联网抓取,只供网友学习交流、技术提升使用。
2、我们遵守BitTorrent点对点协议原则,任何版权问题请联系原资源发布商,我们不处理任何版权纠纷,谢谢!如有争议请联系邮箱:BT9527#hotmail.com(#换成@)
3、如果您发现某页面或地址有错误,请联系站长邮箱BT9527#hotmail.com(#换成@),我们会尽快处理。您的热心是对BT9527电影天堂最大的支持。
4、本站建议去正规影院观看电影以支持电影行业发展。
最新回复 (0)

你可以在 登录 or 注册 后,对此帖发表评论!

返回
发新帖