怎样都行[中文字幕].Whatever.Works.2009.1080p.BluRay.DTS.x265-10bit-ENTHD 6.61GB

版主小s 1月前 185



◎译  名 怎样都行 / 纽约遇到爱 / 总之得就得 / 只管有用 / 管用就行 / 行得通就行
◎片  名 Whatever Works
◎年  代 2009
◎产  地 美国 / 法国
◎类  别 喜剧 / 爱情
◎语  言 英语
◎上映日期 2009-04-22
◎IMDb链接 https://www.imdb.com/title/tt1178663/
◎豆瓣评分 7.9/10 (24365人评价)
◎豆瓣链接 https://movie.douban.com/subject/3007825/
◎片  长 USA: 92 分钟(Tribeca Film Festival)
◎导  演 伍迪·艾伦 Woody Allen (id:1054430)
◎编  剧 伍迪·艾伦 Woody Allen (id:1054430)
◎演  员 拉里·戴维 Larry David (id:1010575)
       埃文·蕾切尔·伍德 Evan Rachel Wood (id:1035652)
       派翠西娅·克拉克森 Patricia Clarkson (id:1013791)
       亨利·卡维尔 Henry Cavill (id:1044713)
       亚当·布鲁克斯 Adam Brooks (id:1050155)
       小艾德·博格里 Ed Begley Jr. (id:1049729)
       薇拉·卡思雷尔 Willa Cuthrell (id:1365608)
       克里斯托弗·埃文·韦尔奇 Christopher Evan Welch (id:1339885)
       奥莱克·克鲁帕 Olek Krupa (id:1316640)
       妮可·帕翠克 Nicole Patrick (id:1009812)
       小约翰·加拉赫 John Gallagher Jr. (id:1018165)
       杰西卡·赫特 Jessica Hecht (id:1009416)
       萨曼莎·比 Samantha Bee (id:1304572)
       尤隆达·罗斯 Yolonda Ross (id:1296143)
       文森特·马拉瓦尔 Vincent Maraval (id:1338353)
       Alisa Lepselter Alisa Lepselter (id:1289822)
       劳拉·罗森塔尔 Laura Rosenthal (id:1296112)
       茱莉叶·泰勒 Juliet Taylor (id:1299000)
       Tom Warren Tom Warren (id:1300466)
       穆费奥托基诺 Murphy Occhino (id:1293464)

◎简  介
  芝加哥大学毕业的物理学家鲍里斯(拉里?戴维 Larry David 饰)自认天才,对世界及人性均极度悲观,在莫名其妙与妻子分手后跳楼自杀未遂,辞去工作搬到纽约曼哈顿城中,靠教小孩象棋为生。某晚在家门口发现了从密西西比州离家出走的天真少女美乐蒂(埃文?雷切尔?伍德 Evan Rachel Wood 饰)。美乐蒂请求鲍里斯收留,极不情愿的鲍里斯只答应让她暂住一晚,却没想到美乐蒂不仅对他的天才极度尊敬,在同龄朋友面前大加赞扬,并对自己渐生爱意。尽管有着四十多岁的年龄差异,二人仍决定结婚。不久美乐蒂的母亲玛丽埃塔(帕特里西娅?克拉克森 Patricia Clarkson 饰)被丈夫抛弃后从密西西比来访,与鲍里斯的朋友凯文(亚当?布鲁克斯  Adam Brooks 饰)一见钟情。凯文帮助玛丽埃塔成为了摄影师,但对鲍里斯不满的玛丽埃塔却想尽办法拆散他与美乐蒂……...

  1. ##### MediaInfo ######
  2. General
  3. Unique ID                                : 84555778860186675537591923500579664205 (0x3F9CD9C40D938FFF0B66A9F49CE5B14D)
  4. Complete name                            : Whatever.Works.2009.1080p.BluRay.DTS.x265-10bit-ENTHD.mkv
  5. Format                                   : Matroska
  6. Format version                           : Version 4
  7. File size                                : 6.61 GiB
  8. Duration                                 : 1 h 31 min
  9. Overall bit rate                         : 10.3 Mb/s
  10. Movie name                               : Whatever Works 2009 1080p BluRay DTS x265-10bit-HDS
  11. Encoded date                             : UTC 2022-05-30 03:16:20
  12. Writing application                      : mkvmerge v38.0.0 ('The Silent Type') 64-bit
  13. Writing library                          : libebml v1.3.9 + libmatroska v1.5.2
  14. Video
  15. ID                                       : 1
  16. Format                                   : HEVC
  17. Format/Info                              : High Efficiency Video Coding
  18. Format profile                           : Main 10@L5.1@High
  19. Codec ID                                 : V_MPEGH/ISO/HEVC
  20. Duration                                 : 1 h 31 min
  21. Bit rate                                 : 8 765 kb/s
  22. Width                                    : 1 920 pixels
  23. Height                                   : 1 036 pixels
  24. Display aspect ratio                     : 1.85:1
  25. Frame rate mode                          : Constant
  26. Frame rate                               : 23.976 (24000/1001/53354) FPS
  27. Color space                              : YUV
  28. Chroma subsampling                       : 4:2:0
  29. Bit depth                                : 10 bits
  30. Bits/(Pixel*Frame)                       : 0.184
  31. Stream size                              : 5.61 GiB (85%)
  32. Title                                    : billpotter@HDSky
  33. Writing library                          : x265 - H.265/HEVC codec
  34. Default                                  : Yes
  35. Forced                                   : No
  36. Audio
  37. ID                                       : 2
  38. Format                                   : DTS
  39. Format/Info                              : Digital Theater Systems
  40. Codec ID                                 : A_DTS
  41. Duration                                 : 1 h 31 min
  42. Bit rate mode                            : Constant
  43. Bit rate                                 : 1 509 kb/s
  44. Channel(s)                               : 3 channels
  45. Channel layout                           : C L R
  46. Sampling rate                            : 48.0 kHz
  47. Frame rate                               : 93.750 FPS (512 SPF)
  48. Bit depth                                : 24 bits
  49. Compression mode                         : Lossy
  50. Stream size                              : 989 MiB (15%)
  51. Title                                    : English
  52. Language                                 : English
  53. Default                                  : Yes
  54. Forced                                   : No
  55. Text #1
  56. ID                                       : 3
  57. Format                                   : PGS
  58. Muxing mode                              : zlib
  59. Codec ID                                 : S_HDMV/PGS
  60. Codec ID/Info                            : Picture based subtitle format used on BDs/HD-DVDs
  61. Duration                                 : 1 h 28 min
  62. Bit rate                                 : 48.1 kb/s
  63. Count of elements                        : 3088
  64. Stream size                              : 30.3 MiB (0%)
  65. Title                                    : CHS
  66. Language                                 : Chinese
  67. Default                                  : Yes
  68. Forced                                   : No
  69. Text #2
  70. ID                                       : 4
  71. Format                                   : PGS
  72. Muxing mode                              : zlib
  73. Codec ID                                 : S_HDMV/PGS
  74. Codec ID/Info                            : Picture based subtitle format used on BDs/HD-DVDs
  75. Duration                                 : 1 h 28 min
  76. Bit rate                                 : 49.9 kb/s
  77. Count of elements                        : 3088
  78. Stream size                              : 31.4 MiB (0%)
  79. Title                                    : CHT
  80. Language                                 : Chinese
  81. Default                                  : No
  82. Forced                                   : No
  83. Menu
  84. 00:00:00.000                             : en:Chapter 01
  85. 00:06:49.618                             : en:Chapter 02
  86. 00:17:19.705                             : en:Chapter 03
  87. 00:22:51.829                             : en:Chapter 04
  88. 00:28:51.605                             : en:Chapter 05
  89. 00:39:30.493                             : en:Chapter 06
  90. 00:47:52.203                             : en:Chapter 07
  91. 00:52:57.633                             : en:Chapter 08
  92. 01:01:12.377                             : en:Chapter 09
  93. 01:08:14.090                             : en:Chapter 10
  94. 01:14:11.697                             : en:Chapter 11
  95. 01:22:12.886                             : en:Chapter 12
复制代码




TAGS 喜剧 爱情 /

磁力链:
  • magnet:?xt=urn:btih:A21FD4E3772B420D1DF40B5489A134B086684876
上传的附件:
BT9527电影天堂 1、BT9527电影天堂提供的BT文件均来源于互联网抓取,只供网友学习交流、技术提升使用。
2、我们遵守BitTorrent点对点协议原则,任何版权问题请联系原资源发布商,我们不处理任何版权纠纷,谢谢!如有争议请联系邮箱:BT9527#hotmail.com(#换成@)
3、如果您发现某页面或地址有错误,请联系站长邮箱BT9527#hotmail.com(#换成@),我们会尽快处理。您的热心是对BT9527电影天堂最大的支持。
4、本站建议去正规影院观看电影以支持电影行业发展。
最新回复 (0)

你可以在 登录 or 注册 后,对此帖发表评论!

返回
发新帖