世界新闻[中文字幕].News.of.the.World.2021.2160p.AMZN.WEB-DL.HEVC.HDR.DDP5.1-OPT 12.79GB

版主小s 28天前 117



◎译  名 世界新闻 / 结叛同行(港) / 读报人(台)
◎片  名 News of the World
◎年  代 2020
◎产  地 美国
◎类  别 剧情 / 动作 / 西部 / 冒险
◎语  言 英语
◎上映日期 2020-12-25(美国) / 2021-01-15(美国网络)
◎IMDb链接 https://www.imdb.com/title/tt6878306/
◎豆瓣评分 7.1/10 (6880人评价)
◎豆瓣链接 https://movie.douban.com/subject/27042738/
◎片  长 118分钟
◎导  演 保罗·格林格拉斯 Paul Greengrass (id:1025193)
◎编  剧 保罗·格林格拉斯 Paul Greengrass (id:1025193)
       卢克·戴维斯 Luke Davies (id:1308544)
       波莱特·吉尔斯 Paulette Jiles (id:1449121)
◎演  员 汤姆·汉克斯 Tom Hanks (id:1054450)
       海伦娜·泽格尔 Helena Zengel (id:1410504)
       伊丽莎白·玛维尔 Elizabeth Marvel (id:1118995)
       雷·迈克金农 Ray McKinnon (id:1041216)
       梅尔·温宁汉姆 Mare Winningham (id:1056148)
       尼尔·桑迪兰兹 Neil Sandilands (id:1383081)
       楚克武迪·武吉 Chukwudi Iwuji (id:1396904)
       托马斯·弗兰西斯·墨菲 Thomas Francis Murphy (id:1383086)
       米歇尔·坎贝尔 Michelle Campbell (id:1399263)
       弗莱德·赫钦格 Fred Hechinger (id:1395178)
       迈克尔·安盖洛·科维诺 Michael Angelo Covino (id:1415036)
       斯塔福德·道格拉斯 Stafford Douglas (id:1340555)
       J·内森·西蒙斯 J. Nathan Simmons (id:1141234)
       斯蒂芬妮·希尔 Stephanie Hill (id:1409741)
       布兰登·韦德纳 Brenden Wedner (id:1345289)
       汤姆·阿斯特 Tom Astor (id:1449122)
       安迪·卡斯特利奇 Andy Kastelic (id:1449123)
       克林特·奥本钦 Clint Obenchain (id:1449124)
       詹姆斯·纽顿·霍华德 James Newton Howard (id:1019135)
       达瑞兹·沃斯基 Dariusz Wolski (id:1276296)
       大卫·格兰克 David Crank (id:1281444)
       伊丽莎白·基南 Elizabeth Keenan (id:1453097)
       马克·布里奇斯 Mark Bridges (id:1279295)

◎简  介
  故事发生在美国内战结束不久之后,曾经在前线奋勇杀敌的军官基德上尉(汤姆·汉克斯 Tom Hanks 饰)如今成为了一名读报人。他辗转于一个又一个小镇,为生活在那里的居民们带来来自世界各地的最新的消息。                                    
                                一天,基德在德州遇见了一个名叫乔安娜(海伦娜·泽格尔 Helena Zengel 饰)的小女孩,这个可怜的姑娘在6年前被印第安人掳走抚养,如今,重新获得了自由的她将要回到叔叔和阿姨的身边开始正常人的生活,虽然这并不是乔安娜真正想要的。基德和乔安娜之间产生了一种奇妙的联结,于是,基德答应护送乔安娜去她应该去的地方,两人要共同面对的,除了险恶的自然环境外,还有叵测的人心。

◎获奖情况 (共31项)
  第78届金球奖 (2021)
  电影类 最佳女配角(提名)
   └──海伦娜·泽格尔 (id:1410504)
  电影类 最佳原创配乐(提名)

  第74届英国电影学院奖 (2021)
  电影奖 最佳摄影(提名)
  电影奖 最佳艺术指导(提名)
  电影奖 最佳原创配乐(提名)
  电影奖 最佳音效(提名)

  第27届美国演员工会奖 (2021)
  电影奖 最佳女配角(提名)
   └──海伦娜·泽格尔 (id:1410504)
  电影最佳特技群戏(提名)

  第73届美国编剧工会奖 (2021)
  电影奖 最佳改编剧本(提名)

  第35届美国摄影协会奖 (2021)
  电影长片最佳摄影(提名)
   └──达瑞兹·沃斯基 (id:1276296)

  第25届美国艺术指导工会奖 (2021)
  电影奖 最佳历史电影艺术指导(提名)
   └──大卫·格兰克 (id:1281444)

  第19届美国视觉效果协会奖 (2021)
  最佳电影辅助视觉效果(提名)

  第68届美国音效剪辑协会奖 (2021)
  金卷轴奖 最佳电影音效剪辑(提名)
  金卷轴奖 最佳电影对白剪辑(提名)
  金卷轴奖 最佳配乐剪辑(提名)

  第57届美国声音效果协会奖 (2021)
  真人电影最佳音效(提名)

  第92届美国国家评论协会奖 (2020)
  最佳改编剧本
  年度佳片

  第26届美国评论家选择电影奖 (2021)
  最佳影片(提名)
  最佳男主角(提名)
   └──汤姆·汉克斯 (id:1054450)
  最佳青少年演员(提名)
   └──海伦娜·泽格尔 (id:1410504)
  最佳改编剧本(提名)
  最佳摄影(提名)
   └──达瑞兹·沃斯基 (id:1276296)
  最佳配乐(提名)
   └──詹姆斯·纽顿·霍华德 (id:1019135)
  最佳美术指导(提名)

  第25届金卫星奖 (2021)
  电影部门 最佳女配角(提名)
   └──海伦娜·泽格尔 (id:1410504)
  电影部门 最佳改编剧本(提名)
  电影部门 最佳原创配乐(提名)
   └──詹姆斯·纽顿·霍华德 (id:1019135)
  电影部门 最佳摄影(提名)
   └──达瑞兹·沃斯基 (id:1276296)

  第33届芝加哥影评人协会奖 (2020)
  最具潜力演员(提名)
   └──海伦娜·泽格尔 (id:1410504)

  第5届亚特兰大影评人协会奖 (2020)
  最佳摄影(提名)

  1. ##### MediaInfo ######
  2. General
  3. Unique ID                                : 286947819328306130816867228219847094776 (0xD7E023C81AB7C79042E37EF5AD2E31F8)
  4. Complete name                            : News.of.the.World.2021.2160p.AMZN.WEB-DL.HEVC.HDR.DDP5.1-OPT.mkv
  5. Format                                   : Matroska
  6. Format version                           : Version 4
  7. File size                                : 12.8 GiB
  8. Duration                                 : 1 h 58 min
  9. Overall bit rate                         : 15.5 Mb/s
  10. Movie name                               : EVO
  11. Encoded date                             : UTC 2021-01-25 09:27:15
  12. Writing application                      : mkvmerge v50.0.0 ('Awakenings') 64-bit
  13. Writing library                          : libebml v1.4.0 + libmatroska v1.6.2
  14. Video
  15. ID                                       : 1
  16. Format                                   : HEVC
  17. Format/Info                              : High Efficiency Video Coding
  18. Format profile                           : Main 10@L5@Main
  19. Codec ID                                 : V_MPEGH/ISO/HEVC
  20. Duration                                 : 1 h 58 min
  21. Bit rate                                 : 14.8 Mb/s
  22. Width                                    : 3 840 pixels
  23. Height                                   : 2 160 pixels
  24. Display aspect ratio                     : 16:9
  25. Frame rate mode                          : Constant
  26. Frame rate                               : 23.976 (24000/1001/53354) FPS
  27. Color space                              : YUV
  28. Chroma subsampling                       : 4:2:0 (Type 2)
  29. Bit depth                                : 10 bits
  30. Bits/(Pixel*Frame)                       : 0.074
  31. Stream size                              : 12.2 GiB (96%)
  32. Default                                  : Yes
  33. Forced                                   : No
  34. Color range                              : Limited
  35. Color primaries                          : BT.2020
  36. Transfer characteristics                 : PQ
  37. Matrix coefficients                      : BT.2020 non-constant
  38. Maximum Content Light Level              : 1000 cd/m2
  39. Maximum Frame-Average Light Level        : 184 cd/m2
  40. Audio
  41. ID                                       : 3
  42. Format                                   : E-AC-3
  43. Format/Info                              : Enhanced AC-3
  44. Commercial name                          : Dolby Digital Plus
  45. Codec ID                                 : A_EAC3
  46. Duration                                 : 1 h 58 min
  47. Bit rate mode                            : Constant
  48. Bit rate                                 : 640 kb/s
  49. Channel(s)                               : 6 channels
  50. Channel layout                           : L R C LFE Ls Rs
  51. Sampling rate                            : 48.0 kHz
  52. Frame rate                               : 31.250 FPS (1536 SPF)
  53. Compression mode                         : Lossy
  54. Stream size                              : 542 MiB (4%)
  55. Title                                    : English
  56. Language                                 : English
  57. Service kind                             : Complete Main
  58. Default                                  : Yes
  59. Forced                                   : No
  60. Text #1
  61. ID                                       : 2
  62. Format                                   : UTF-8
  63. Codec ID                                 : S_TEXT/UTF8
  64. Codec ID/Info                            : UTF-8 Plain Text
  65. Duration                                 : 1 h 57 min
  66. Bit rate                                 : 38 b/s
  67. Count of elements                        : 1357
  68. Stream size                              : 33.6 KiB (0%)
  69. Title                                    : English
  70. Language                                 : English
  71. Default                                  : No
  72. Forced                                   : No
  73. Text #2
  74. ID                                       : 4
  75. Format                                   : ASS
  76. Codec ID                                 : S_TEXT/ASS
  77. Codec ID/Info                            : Advanced Sub Station Alpha
  78. Duration                                 : 1 h 51 min
  79. Bit rate                                 : 58 b/s
  80. Count of elements                        : 984
  81. Compression mode                         : Lossless
  82. Stream size                              : 48.0 KiB (0%)
  83. Language                                 : Chinese
  84. Default                                  : Yes
  85. Forced                                   : No
  86. Text #3
  87. ID                                       : 5
  88. Format                                   : ASS
  89. Codec ID                                 : S_TEXT/ASS
  90. Codec ID/Info                            : Advanced Sub Station Alpha
  91. Duration                                 : 1 h 51 min
  92. Bit rate                                 : 58 b/s
  93. Count of elements                        : 984
  94. Compression mode                         : Lossless
  95. Stream size                              : 48.0 KiB (0%)
  96. Language                                 : Chinese
  97. Default                                  : No
  98. Forced                                   : No
  99. Text #4
  100. ID                                       : 6
  101. Format                                   : PGS
  102. Muxing mode                              : zlib
  103. Codec ID                                 : S_HDMV/PGS
  104. Codec ID/Info                            : Picture based subtitle format used on BDs/HD-DVDs
  105. Duration                                 : 1 h 51 min
  106. Bit rate                                 : 14.8 kb/s
  107. Count of elements                        : 1502
  108. Stream size                              : 11.8 MiB (0%)
  109. Language                                 : Chinese
  110. Default                                  : No
  111. Forced                                   : No
  112. Text #5
  113. ID                                       : 7
  114. Format                                   : PGS
  115. Muxing mode                              : zlib
  116. Codec ID                                 : S_HDMV/PGS
  117. Codec ID/Info                            : Picture based subtitle format used on BDs/HD-DVDs
  118. Duration                                 : 1 h 51 min
  119. Bit rate                                 : 15.1 kb/s
  120. Count of elements                        : 1502
  121. Stream size                              : 12.0 MiB (0%)
  122. Language                                 : Chinese
  123. Default                                  : No
  124. Forced                                   : No
复制代码




TAGS 动作 冒险 剧情 西部 /

磁力链:
  • magnet:?xt=urn:btih:0AE823E0B86F9BA847DEE51BFE079CA7DA452C07
上传的附件:
BT9527电影天堂 1、BT9527电影天堂提供的BT文件均来源于互联网抓取,只供网友学习交流、技术提升使用。
2、我们遵守BitTorrent点对点协议原则,任何版权问题请联系原资源发布商,我们不处理任何版权纠纷,谢谢!如有争议请联系邮箱:BT9527#hotmail.com(#换成@)
3、如果您发现某页面或地址有错误,请联系站长邮箱BT9527#hotmail.com(#换成@),我们会尽快处理。您的热心是对BT9527电影天堂最大的支持。
4、本站建议去正规影院观看电影以支持电影行业发展。
最新回复 (0)

你可以在 登录 or 注册 后,对此帖发表评论!

返回
发新帖