僵尸先生[共3部合集][国语音轨/简繁英字幕].Mr.Vampire.Collections.2160p.WEB-DL.DDP5.1.HDR.H.265-CTRLWEB 49.11GB

版主小s 4月前 330

◎译 名 僵尸先生 / 暂时停止呼吸(台) / 霊幻道士(日) / Mr. Vampire

◎片 名 殭屍先生

◎年 代 1985

◎产 地 中国香港

◎类 别 喜剧 / 动作 / 奇幻

◎语 言 粤语

◎上映日期 1985-11-07

◎IMDb链接 https://www.imdb.com/title/tt0089371/

◎豆瓣评分 8.4/10 (76609人评价)

◎豆瓣链接 https://movie.douban.com/subject/1295933/

◎片 长 96 分钟

◎导 演 刘观伟 Ricky Lau (id:1038428)

◎编 剧 黄鹰 Ying Wong (id:1316778)

司徒卓汉 Chuek-Hon Szeto (id:1314905)

黄炳耀 Barry Wong (id:1014964)

◎演 员 林正英 Ching-Ying Lam (id:1016823)

许冠英 Ricky Hui (id:1023727)

钱小豪 Siu-hou Chin (id:1005415)

李赛凤 Moon Lee (id:1005495)

楼南光 Billy Lau (id:1289501)

王小凤 Pauline Wong (id:1275089)

黄虾 Ha Huang (id:1374071)

元华 Wah Yuen (id:1050240)

陈友 Anthony Chan (id:1028948)

何柏光 Pak-Kwong Ho (id:1350540)

刘秋生 Chau Sang Lau (id:1373863)

彭润祥 Yun-chiang Peng (id:1431212)

元武 Wu Yuan (id:1344878)

张荣祥 Cheung Wing-Cheung (id:1326361)

午马 Wu Ma (id:1054282)

黄韵诗 Wan-Si Wong (id:1274439)

田启文 Kai Man Tin (id:1315882)

陈佩华 Jessica Chan Pooi-Wa (id:1372898)

高满楷 Stanley Ko (id:1409749)

刘玲钰 Lingyu Liu (id:1349415)

Melody Bank Melody Bank (id:1277832)

敖志君 Peter Ngor (id:1293124)

刘镇伟 Jeffrey Lau (id:1274431)

张耀宗 Peter Cheung (id:1280650)

林世乐 Sai Kan Lam (id:1289302)

刘秋生 Chau Sang Lau (id:1373863)

林正英 Ching-Ying Lam (id:1016823)

元武 Wu Yuan (id:1344878)

周少龙 Shao Lung Chou (id:1344862)

黄志明 Wong Chi-Ming (id:1398895)

◎简 介

富贵乡绅任发(黄虾 饰)先父当年威逼利诱求得一块风水宝地,经风水先生指点,其父下葬二十年后起坟迁葬,以利子孙。然九叔(林正英 饰)察看墓穴得知,当年风水先生与任家私怨在身,在墓穴中做下手脚,二十年后任老太爷尸体已生恶变。九叔提议就地火化,在任老爷请求下才将尸骨移往义庄。虽经小心看护,但任老太爷仍化作僵尸,将其子任发杀害。

九叔断定任老太爷和任发的僵尸将再次出现,于是命令徒弟秋生(钱小豪 饰)和文才(许冠英 饰)小心应付……

◎获奖情况 (共11项)

第5届香港电影金像奖 (1986)

最佳电影(提名)

最佳导演(提名)

└──刘观伟 (id:1038428)

最佳编剧(提名)

最佳男配角(提名)

最佳新演员(提名)

└──楼南光 (id:1289501)

最佳摄影(提名)

└──敖志君 (id:1293124)

最佳剪接(提名)

└──张耀宗 (id:1280650)

最佳美术指导(提名)

└──林世乐 (id:1289302)

最佳动作设计(提名)

最佳原创电影音乐

└──Melody Bank (id:1277832)

最佳原创电影歌曲(提名)

  1. 合集文件列表:

  2. 1.Mr.Vampire.2.1986.2160p.WEB-DL.AAC.2.0.HDR.H.265-CTRLWEB.mkv 15.67GB

  3. 2.Mr.Vampire.3.1987.2160p.WEB-DL.AAC.2.0.HDR.H.265-CTRLWEB.mkv 16.27GB

  4. 3.Mr.Vampire.1985.2160p.WEB-DL.DDP5.1.HDR.H.265-CTRLWEB.mkv 17.17GB


复制代码

  1. ##### MediaInfo ######

  2. General

  3. Unique ID : 163315972577663503212023664568312437431 (0x7ADD831F6F452AACEA3E35F796369AB7)

  4. Complete name : Mr.Vampire.2.1986.2160p.WEB-DL.AAC.2.0.HDR.H.265-CTRLWEB.mkv

  5. Format : Matroska

  6. Format version : Version 4

  7. File size : 15.7 GiB

  8. Duration : 1 h 29 min

  9. Overall bit rate : 25.1 Mb/s

  10. Encoded date : UTC 2022-05-31 08:28:30

  11. Writing application : mkvmerge v65.0.0 ('Too Much') 64-bit

  12. Writing library : libebml v1.4.2 + libmatroska v1.6.4

  13. Video

  14. ID : 1

  15. Format : HEVC

  16. Format/Info : High Efficiency Video Coding

  17. Format profile : Main 10@L5@High

  18. HDR format : SMPTE ST 2086, HDR10 compatible

  19. Codec ID : V_MPEGH/ISO/HEVC

  20. Duration : 1 h 29 min

  21. Bit rate : 24.8 Mb/s

  22. Width : 3 840 pixels

  23. Height : 2 072 pixels

  24. Display aspect ratio : 1.85:1

  25. Frame rate mode : Constant

  26. Frame rate : 24.000 FPS

  27. Color space : YUV

  28. Chroma subsampling : 4:2:0 (Type 2)

  29. Bit depth : 10 bits

  30. Bits/(Pixel*Frame) : 0.130

  31. Stream size : 15.5 GiB (99%)

  32. Language : English

  33. Default : Yes

  34. Forced : No

  35. Color range : Limited

  36. Color primaries : BT.2020

  37. Transfer characteristics : PQ

  38. Matrix coefficients : BT.2020 non-constant

  39. Mastering display color primaries : BT.2020

  40. Mastering display luminance : min: 0.0001 cd/m2, max: 1000 cd/m2

  41. Maximum Content Light Level : 561 cd/m2

  42. Maximum Frame-Average Light Level : 382 cd/m2

  43. Audio #1

  44. ID : 2

  45. Format : AAC LC

  46. Format/Info : Advanced Audio Codec Low Complexity

  47. Codec ID : A_AAC-2

  48. Duration : 1 h 29 min

  49. Bit rate : 121 kb/s

  50. Channel(s) : 2 channels

  51. Channel layout : L R

  52. Sampling rate : 48.0 kHz

  53. Frame rate : 46.875 FPS (1024 SPF)

  54. Compression mode : Lossy

  55. Stream size : 77.4 MiB (0%)

  56. Language : Chinese

  57. Default : Yes

  58. Forced : No

  59. Audio #2

  60. ID : 3

  61. Format : AAC LC

  62. Format/Info : Advanced Audio Codec Low Complexity

  63. Codec ID : A_AAC-2

  64. Duration : 1 h 29 min

  65. Bit rate : 126 kb/s

  66. Channel(s) : 2 channels

  67. Channel layout : L R

  68. Sampling rate : 48.0 kHz

  69. Frame rate : 46.875 FPS (1024 SPF)

  70. Compression mode : Lossy

  71. Stream size : 80.6 MiB (1%)

  72. Language : Chinese

  73. Default : No

  74. Forced : No

  75. Text #1

  76. ID : 4

  77. Format : UTF-8

  78. Codec ID : S_TEXT/UTF8

  79. Codec ID/Info : UTF-8 Plain Text

  80. Duration : 1 h 24 min

  81. Bit rate : 28 b/s

  82. Count of elements : 874

  83. Stream size : 17.7 KiB (0%)

  84. Language : English

  85. Default : No

  86. Forced : No

  87. Text #2

  88. ID : 5

  89. Format : UTF-8

  90. Codec ID : S_TEXT/UTF8

  91. Codec ID/Info : UTF-8 Plain Text

  92. Duration : 1 h 24 min

  93. Bit rate : 32 b/s

  94. Count of elements : 874

  95. Stream size : 20.4 KiB (0%)

  96. Title : Simplified

  97. Language : Chinese

  98. Default : No

  99. Forced : No

  100. Text #3

  101. ID : 6

  102. Format : UTF-8

  103. Codec ID : S_TEXT/UTF8

  104. Codec ID/Info : UTF-8 Plain Text

  105. Duration : 1 h 24 min

  106. Bit rate : 32 b/s

  107. Count of elements : 874

  108. Stream size : 20.4 KiB (0%)

  109. Title : Traditional

  110. Language : Chinese

  111. Default : No

  112. Forced : No

  113. Menu

  114. 00:00:00.000 : en:Chapter 1

  115. 00:12:48.708 : en:Chapter 2

  116. 00:24:31.125 : en:Chapter 3

  117. 00:36:27.916 : en:Chapter 4

  118. 00:52:18.875 : en:Chapter 5

  119. 01:06:40.750 : en:Chapter 6

  120. 01:15:19.958 : en:Chapter 7

  121. 01:25:20.625 : en:Chapter 8


复制代码


TAGS 动作 奇幻 喜剧 /

磁力链:
  • magnet:?xt=urn:btih:E203790BEDA65C02D66ACA58F35F5E09EE6D9EFF
上传的附件:
BT9527电影天堂 1、BT9527电影天堂提供的BT文件均来源于互联网抓取,只供网友学习交流、技术提升使用。
2、我们遵守BitTorrent点对点协议原则,任何版权问题请联系原资源发布商,我们不处理任何版权纠纷,谢谢!如有争议请联系邮箱:BT9527#hotmail.com(#换成@)
3、如果您发现某页面或地址有错误,请联系站长邮箱BT9527#hotmail.com(#换成@),我们会尽快处理。您的热心是对BT9527电影天堂最大的支持。
4、本站建议去正规影院观看电影以支持电影行业发展。
最新回复 (0)

你可以在 登录 or 注册 后,对此帖发表评论!

返回