乐高DC超级英雄:正义联盟之末日军团的进攻[简繁英字幕].LEGO.Justice.League.Attack.of.the.Legion.of.Doom.2015.1080p.BluRay.DTS.x265-10bit-ENTHD 3.40GB

版主小s 1月前 237



◎译  名 乐高DC超级英雄:正义联盟之末日军团的进攻 / 乐高正义联盟:毁灭军团来袭
◎片  名 LEGO DC Super Heroes - Justice League: Attack of the Legion of Doom!
◎年  代 2015
◎产  地 美国
◎类  别 动作 / 科幻 / 动画
◎语  言 英语
◎上映日期 2015-08-25(美国)
◎IMDb链接 https://www.imdb.com/title/tt4938416/
◎豆瓣评分 7.8/10 (3717人评价)
◎豆瓣链接 https://movie.douban.com/subject/26588820/
◎片  长 72分钟

◎简  介
  莱克斯·卢瑟带领的末日军团遇上黑暗君主达克赛德,这次又会对正义联盟的小伙伴们造成什么麻烦呢?

  1. ##### MediaInfo ######
  2. General
  3. Unique ID                                : 328062993749506994349492962239064090164 (0xF6CEA263800148F11A541A3249ACA634)
  4. Complete name                            : LEGO.Justice.League.Attack.of.the.Legion.of.Doom.2015.1080p.BluRay.DTS.x265-10bit-ENTHD.mkv
  5. Format                                   : Matroska
  6. Format version                           : Version 4
  7. File size                                : 3.40 GiB
  8. Duration                                 : 1 h 17 min
  9. Overall bit rate                         : 6 311 kb/s
  10. Movie name                               : LEGO Justice League Attack of the Legion of Doom 2015 1080p BluRay DTS x265-10bit-HDS
  11. Encoded date                             : UTC 2022-05-31 04:37:23
  12. Writing application                      : mkvmerge v67.0.0 ('Under Stars') 64-bit
  13. Writing library                          : libebml v1.4.2 + libmatroska v1.6.4 / Lavf59.17.101
  14. Video
  15. ID                                       : 1
  16. Format                                   : HEVC
  17. Format/Info                              : High Efficiency Video Coding
  18. Format profile                           : Main 10@L5.1@High
  19. Codec ID                                 : V_MPEGH/ISO/HEVC
  20. Duration                                 : 1 h 17 min
  21. Bit rate                                 : 4 705 kb/s
  22. Width                                    : 1 920 pixels
  23. Height                                   : 1 080 pixels
  24. Display aspect ratio                     : 16:9
  25. Frame rate mode                          : Constant
  26. Frame rate                               : 23.976 (24000/1001/53354) FPS
  27. Color space                              : YUV
  28. Chroma subsampling                       : 4:2:0
  29. Bit depth                                : 10 bits
  30. Bits/(Pixel*Frame)                       : 0.095
  31. Stream size                              : 2.53 GiB (75%)
  32. Title                                    : GalenMao@HDSky
  33. Default                                  : No
  34. Forced                                   : No
  35. Audio
  36. ID                                       : 2
  37. Format                                   : DTS
  38. Format/Info                              : Digital Theater Systems
  39. Codec ID                                 : A_DTS
  40. Duration                                 : 1 h 17 min
  41. Bit rate mode                            : Constant
  42. Bit rate                                 : 1 509 kb/s
  43. Channel(s)                               : 6 channels
  44. Channel layout                           : C L R Ls Rs LFE
  45. Sampling rate                            : 48.0 kHz
  46. Frame rate                               : 93.750 FPS (512 SPF)
  47. Bit depth                                : 24 bits
  48. Compression mode                         : Lossy
  49. Stream size                              : 831 MiB (24%)
  50. Title                                    : English
  51. Language                                 : English
  52. Default                                  : Yes
  53. Forced                                   : No
  54. Text #1
  55. ID                                       : 3
  56. Format                                   : PGS
  57. Muxing mode                              : zlib
  58. Codec ID                                 : S_HDMV/PGS
  59. Codec ID/Info                            : Picture based subtitle format used on BDs/HD-DVDs
  60. Duration                                 : 1 h 16 min
  61. Bit rate                                 : 41.6 kb/s
  62. Count of elements                        : 2430
  63. Stream size                              : 22.9 MiB (1%)
  64. Title                                    : ENG
  65. Language                                 : English
  66. Default                                  : Yes
  67. Forced                                   : No
  68. Text #2
  69. ID                                       : 4
  70. Format                                   : PGS
  71. Muxing mode                              : zlib
  72. Codec ID                                 : S_HDMV/PGS
  73. Codec ID/Info                            : Picture based subtitle format used on BDs/HD-DVDs
  74. Duration                                 : 1 h 13 min
  75. Bit rate                                 : 26.8 kb/s
  76. Count of elements                        : 1953
  77. Stream size                              : 14.2 MiB (0%)
  78. Title                                    : CHS
  79. Language                                 : Chinese
  80. Default                                  : Yes
  81. Forced                                   : No
  82. Text #3
  83. ID                                       : 5
  84. Format                                   : PGS
  85. Muxing mode                              : zlib
  86. Codec ID                                 : S_HDMV/PGS
  87. Codec ID/Info                            : Picture based subtitle format used on BDs/HD-DVDs
  88. Duration                                 : 1 h 13 min
  89. Bit rate                                 : 27.8 kb/s
  90. Count of elements                        : 1953
  91. Stream size                              : 14.7 MiB (0%)
  92. Title                                    : CHT
  93. Language                                 : Chinese
  94. Default                                  : Yes
  95. Forced                                   : No
  96. Text #4
  97. ID                                       : 6
  98. Format                                   : PGS
  99. Muxing mode                              : zlib
  100. Codec ID                                 : S_HDMV/PGS
  101. Codec ID/Info                            : Picture based subtitle format used on BDs/HD-DVDs
  102. Duration                                 : 1 h 13 min
  103. Bit rate                                 : 46.0 kb/s
  104. Count of elements                        : 1953
  105. Stream size                              : 24.3 MiB (1%)
  106. Title                                    : CHS&ENG
  107. Language                                 : Chinese
  108. Default                                  : Yes
  109. Forced                                   : No
  110. Text #5
  111. ID                                       : 7
  112. Format                                   : PGS
  113. Muxing mode                              : zlib
  114. Codec ID                                 : S_HDMV/PGS
  115. Codec ID/Info                            : Picture based subtitle format used on BDs/HD-DVDs
  116. Duration                                 : 1 h 13 min
  117. Bit rate                                 : 46.9 kb/s
  118. Count of elements                        : 1953
  119. Stream size                              : 24.8 MiB (1%)
  120. Title                                    : CHT&ENG
  121. Language                                 : Chinese
  122. Default                                  : Yes
  123. Forced                                   : No
  124. Menu
  125. 00:00:00.000                             : en:第 01 章
  126. 00:11:16.342                             : en:第 02 章
  127. 00:18:48.919                             : en:第 03 章
  128. 00:29:12.125                             : en:第 04 章
  129. 00:37:33.084                             : en:第 05 章
  130. 00:50:00.456                             : en:第 06 章
  131. 00:59:02.956                             : en:第 07 章
  132. 01:09:21.115                             : en:第 08 章
  133. 01:14:02.938                             : en:第 09 章
复制代码




TAGS 动作 动画 科幻 /

磁力链:
  • magnet:?xt=urn:btih:749294043CCB35A56EE0DF1CAED8633410A77525
上传的附件:
BT9527电影天堂 1、BT9527电影天堂提供的BT文件均来源于互联网抓取,只供网友学习交流、技术提升使用。
2、我们遵守BitTorrent点对点协议原则,任何版权问题请联系原资源发布商,我们不处理任何版权纠纷,谢谢!如有争议请联系邮箱:BT9527#hotmail.com(#换成@)
3、如果您发现某页面或地址有错误,请联系站长邮箱BT9527#hotmail.com(#换成@),我们会尽快处理。您的热心是对BT9527电影天堂最大的支持。
4、本站建议去正规影院观看电影以支持电影行业发展。
最新回复 (3)

你可以在 登录 or 注册 后,对此帖发表评论!

返回
发新帖