超级关心的问题[中文字幕].Jazzy.Misfits.2019.1080p.WEB-DL.AAC.2.0.H.264-CTRLWEB 2.45GB

版主小s 1月前 371

◎译 名 超级关心的问题 / Jazzy Misfits

◎片 名 ??? ???

◎年 代 2019

◎产 地 韩国

◎语 言 韩语

◎上映日期 2019-10-10(釜山电影节) / 2020-05-27(韩国)

◎IMDb链接 https://www.imdb.com/title/tt11963590/

◎豆瓣链接 https://movie.douban.com/subject/34816615/

◎片 长 89分钟

◎演 员 赵敏修 Min-su Jo (id:1316408)

金恩英 Cheetah (id:1373622)

崔智秀 Ji-su Choi (id:1449806)

特里斯·布朗 Terris Brown (id:1459017)

◎简 介

讲述穿梭于梨泰院胡同,展开母女之间不可预测追击战的故事

  1. ##### MediaInfo ######

  2. General

  3. Unique ID : 71727429573040177466134306632500880001 (0x35F633505AC986BB7C5F45D901D9A281)

  4. Complete name : Jazzy.Misfits.2019.1080p.WEB-DL.AAC.2.0.H.264-CTRLWEB.mkv

  5. Format : Matroska

  6. Format version : Version 4

  7. File size : 2.45 GiB

  8. Duration : 1 h 31 min

  9. Overall bit rate : 3 825 kb/s

  10. Encoded date : UTC 2022-05-26 05:06:01

  11. Writing application : mkvmerge v65.0.0 ('Too Much') 64-bit

  12. Writing library : libebml v1.4.2 + libmatroska v1.6.4

  13. Video

  14. ID : 1

  15. Format : AVC

  16. Format/Info : Advanced Video Codec

  17. Format profile : High@L4.1

  18. Format settings : CABAC / 1 Ref Frames

  19. Format settings, CABAC : Yes

  20. Format settings, Reference frames : 1 frame

  21. Format settings, GOP : M=1, N=60

  22. Codec ID : V_MPEG4/ISO/AVC

  23. Duration : 1 h 31 min

  24. Bit rate mode : Constant

  25. Bit rate : 3 697 kb/s

  26. Nominal bit rate : 4 000 kb/s

  27. Width : 1 920 pixels

  28. Height : 1 080 pixels

  29. Display aspect ratio : 16:9

  30. Frame rate mode : Constant

  31. Frame rate : 29.970 (30000/1001/53354) FPS

  32. Color space : YUV

  33. Chroma subsampling : 4:2:0

  34. Bit depth : 8 bits

  35. Scan type : Progressive

  36. Bits/(Pixel*Frame) : 0.059

  37. Stream size : 2.37 GiB (97%)

  38. Default : Yes

  39. Forced : No

  40. Audio

  41. ID : 2

  42. Format : AAC LC

  43. Format/Info : Advanced Audio Codec Low Complexity

  44. Codec ID : A_AAC-2

  45. Duration : 1 h 31 min

  46. Bit rate : 125 kb/s

  47. Channel(s) : 2 channels

  48. Channel layout : L R

  49. Sampling rate : 48.0 kHz

  50. Frame rate : 46.875 FPS (1024 SPF)

  51. Compression mode : Lossy

  52. Stream size : 82.2 MiB (3%)

  53. Language : Korean

  54. Default : Yes

  55. Forced : No

  56. Text

  57. ID : 3

  58. Format : UTF-8

  59. Codec ID : S_TEXT/UTF8

  60. Codec ID/Info : UTF-8 Plain Text

  61. Duration : 1 h 29 min

  62. Bit rate : 38 b/s

  63. Count of elements : 1173

  64. Stream size : 25.1 KiB (0%)

  65. Title : Traditional (SDH)

  66. Language : Chinese

  67. Default : No

  68. Forced : No


复制代码


TAGS 剧情

磁力链:
  • magnet:?xt=urn:btih:54241E3519D2B5D1F9E84DF440A70A46D6EDD843
上传的附件:
BT9527电影天堂 1、BT9527电影天堂提供的BT文件均来源于互联网抓取,只供网友学习交流、技术提升使用。
2、我们遵守BitTorrent点对点协议原则,任何版权问题请联系原资源发布商,我们不处理任何版权纠纷,谢谢!如有争议请联系邮箱:BT9527#hotmail.com(#换成@)
3、如果您发现某页面或地址有错误,请联系站长邮箱BT9527#hotmail.com(#换成@),我们会尽快处理。您的热心是对BT9527电影天堂最大的支持。
4、本站建议去正规影院观看电影以支持电影行业发展。
最新回复 (0)

你可以在 登录 or 注册 后,对此帖发表评论!

返回
发新帖