请叫我英雄[简繁英字幕].I.Am.a.Hero.2015.BluRay.1080p.DTS-HD.MA.5.1.x265.10bit-CTRLHD 7.96GB

版主小s 4月前 419

◎译 名 请叫我英雄 / 丧尸末日战(港) / I Am a Hero

◎片 名 アイアムアヒーロー

◎年 代 2015

◎产 地 日本

◎类 别 动作 / 恐怖

◎语 言 日语

◎上映日期 2015-10-13(锡切斯电影节) / 2016-04-23(日本)

◎IMDb链接 https://www.imdb.com/title/tt3775202/

◎豆瓣评分 7.2/10 (67187人评价)

◎豆瓣链接 https://movie.douban.com/subject/25899379/

◎片 长 126分钟

◎导 演 佐藤信介 Shinsuke Sato (id:1296732)

◎编 剧 野木亚纪子 Akiko Nogi (id:1335592)

花泽健吾 Kengo Hanazawa (id:1364425)

◎演 员 大泉洋 Y? ?izumi (id:1184188)

有村架纯 Kasumi Arimura (id:1275528)

长泽雅美 Masami Nagasawa (id:1018667)

吉泽悠 Hisashi Yoshizawa (id:1313264)

冈田义德 Yoshinori Okada (id:1033566)

片濑那奈 Nana Katase (id:1042271)

片桐仁 Jin Katagiri (id:1332520)

槙田雄司 Makita Sports (id:1329523)

塚地武雅 Muga Tsukaji (id:1038649)

德井优 Yu Tokui (id:1029376)

风间彻 T?ru Kazama (id:1288267)

美秀铃木 Miho Suzuki (id:1364426)

大塚弘太 Hirota Otsuka (id:1388851)

◎简 介

居住在东京的35岁男子的铃木英雄(大泉洋 饰)是某著名漫画家的助手,他早年曾出版过单行本,但在此之后一直籍籍无名。不仅生活拮据,与女朋友黑川彻子(片濑那奈 饰)的关系也日趋紧张。许是太过为自身的境遇所焦灼,英雄根本没发觉周遭接连发生的异样。直到冷战许久的女友化身为恐怖丧尸,他才发现全日本早已被名为ZQN的僵尸病毒所攻占。原本秩序井然的都市,顿时变成了僵尸肆虐的狩猎场。他慌不择路之际,与女高中生早狩比呂美(有村架纯 饰)坐上一辆出租车,历经千难万险逃出了城市。根据手机上收到的信息,他们朝向ZQN不宜生存的富士山前进,并在途中邂逅了护士的薮(长泽雅美 饰)所在的幸存者们。只不过,危机和考验并未就此结束……

本片根据漫画家花泽健吾的同名原作改编。

◎获奖情况 (共1项)

第3届豆瓣电影年度榜单 (2016)

11月最受关注电影(提名)

  1. ##### MediaInfo ######

  2. General

  3. Unique ID : 280369727763617710573183606698756323188 (0xD2ED3ED3D7C2E8669731259D3554B774)

  4. Complete name : I.Am.a.Hero.2015.BluRay.1080p.DTS-HD.MA.5.1.x265.10bit-CTRLHD.mkv

  5. Format : Matroska

  6. Format version : Version 4

  7. File size : 7.96 GiB

  8. Duration : 2 h 6 min

  9. Overall bit rate mode : Variable

  10. Overall bit rate : 8 998 kb/s

  11. Encoded date : UTC 2022-05-29 14:30:47

  12. Writing application : mkvmerge v68.0.0 ('The Curtain') 64-bit

  13. Writing library : libebml v1.4.2 + libmatroska v1.6.4

  14. Video

  15. ID : 1

  16. Format : HEVC

  17. Format/Info : High Efficiency Video Coding

  18. Format profile : Main 10@L4@Main

  19. Codec ID : V_MPEGH/ISO/HEVC

  20. Duration : 2 h 6 min

  21. Bit rate : 6 623 kb/s

  22. Width : 1 920 pixels

  23. Height : 804 pixels

  24. Display aspect ratio : 2.40:1

  25. Frame rate mode : Constant

  26. Frame rate : 23.976 (23976/1000/53354) FPS

  27. Color space : YUV

  28. Chroma subsampling : 4:2:0

  29. Bit depth : 10 bits

  30. Bits/(Pixel*Frame) : 0.179

  31. Stream size : 5.86 GiB (74%)

  32. Writing library : x265 2.7+15-b9f5b5d7bf95:[Windows][MSVC 1800][64 bit] 10bit

  33. Encoding settings : cpuid=533541173503 / frame-threads=4 / numa-pools=16 / wpp / no-pmode / no-pme / no-psnr / no-ssim / log-level=2 / input-csp=1 / input-res=1920x804 / interlace=0 / total-frames=0 / level-idc=0 / high-tier=1 / uhd-bd=0 / ref=6 / no-allow-non-conformance / repeat-headers / annexb / no-aud / no-hrd / info / hash=0 / no-temporal-layers / no-open-gop / min-keyint=23 / keyint=250 / gop-lookahead=0 / bframes=8 / b-adapt=2 / b-pyramid / bframe-bias=0 / rc-lookahead=24 / lookahead-slices=5 / NTMzNTQ=uuDQuD2mJt9fsCf / scenecut=40 / radl=0 / no-intra-refresh / ctu=64 / min-cu-size=8 / no-rect / no-amp / max-tu-size=32 / tu-inter-depth=1 / tu-intra-depth=1 / limit-tu=0 / rdoq-level=0 / dynamic-rd=0.00 / no-ssim-rd / signhide / no-tskip / nr-intra=0 / nr-inter=0 / no-constrained-intra / no-strong-intra-smoothing / max-merge=2 / limit-refs=3 / no-limit-modes / me=2 / subme=7 / merange=48 / temporal-mvp / weightp / weightb / no-analyze-src-pics / deblock=0:0 / sao / no-sao-non-deblock / rd=4 / no-early-skip / rskip / no-fast-intra / no-tskip-fast / no-cu-lossless / no-b-intra / no-splitrd-skip / rdpenalty=0 / psy-rd=2.00 / psy-rdoq=0.00 / no-rd-refine / no-lossless / cbqpoffs=0 / crqpoffs=0 / rc=crf / crf=16.0 / qcomp=0.60 / qpstep=4 / stats-write=0 / stats-read=0 / ipratio=1.40 / pbratio=1.30 / aq-mode=3 / aq-strength=1.00 / cutree / zone-count=0 / no-strict-cbr / qg-size=32 / no-rc-grain / qpmax=69 / qpmin=0 / no-const-vbv / sar=0 / overscan=0 / videoformat=5 / range=0 / colorprim=2 / transfer=2 / colormatrix=2 / chromaloc=0 / display-window=0 / max-cll=0,0 / min-luma=0 / max-luma=1023 / log2-max-poc-lsb=8 / vui-timing-info / vui-hrd-info / slices=1 / no-opt-qp-pps / no-opt-ref-list-length-pps / no-multi-pass-opt-rps / scenecut-bias=0.05 / no-opt-cu-delta-qp / aq-motion / no-hdr / no-hdr-opt / no-dhdr10-opt / no-idr-recovery-sei / analysis-reuse-level=5 / scale-factor=0 / refine-intra=0 / refine-inter=0 / refine-mv=0 / no-limit-sao / ctu-info=0 / no-lowpass-dct / refine-mv-type=0 / copy-pic=1 / max-ausize-factor=1.0 / no-dynamic-refine

  34. Default : Yes

  35. Forced : No

  36. Audio

  37. ID : 2

  38. Format : DTS XLL

  39. Format/Info : Digital Theater Systems

  40. Commercial name : DTS-HD Master Audio

  41. Codec ID : A_DTS

  42. Duration : 2 h 6 min

  43. Bit rate mode : Variable

  44. Bit rate : 2 356 kb/s

  45. Channel(s) : 6 channels

  46. Channel layout : C L R Ls Rs LFE

  47. Sampling rate : 48.0 kHz

  48. Frame rate : 93.750 FPS (512 SPF)

  49. Bit depth : 16 bits

  50. Compression mode : Lossless

  51. Stream size : 2.08 GiB (26%)

  52. Language : Japanese

  53. Default : Yes

  54. Forced : No

  55. Text #1

  56. ID : 3

  57. Format : PGS

  58. Muxing mode : zlib

  59. Codec ID : S_HDMV/PGS

  60. Codec ID/Info : Picture based subtitle format used on BDs/HD-DVDs

  61. Duration : 2 h 6 min

  62. Bit rate : 12.4 kb/s

  63. Count of elements : 1747

  64. Stream size : 11.2 MiB (0%)

  65. Language : English

  66. Default : Yes

  67. Forced : No

  68. Text #2

  69. ID : 4

  70. Format : PGS

  71. Muxing mode : zlib

  72. Codec ID : S_HDMV/PGS

  73. Codec ID/Info : Picture based subtitle format used on BDs/HD-DVDs

  74. Duration : 2 h 0 min

  75. Bit rate : 12.5 kb/s

  76. Count of elements : 1740

  77. Stream size : 10.8 MiB (0%)

  78. Title : CHS

  79. Language : Chinese

  80. Default : Yes

  81. Forced : No

  82. Text #3

  83. ID : 5

  84. Format : PGS

  85. Muxing mode : zlib

  86. Codec ID : S_HDMV/PGS

  87. Codec ID/Info : Picture based subtitle format used on BDs/HD-DVDs

  88. Duration : 2 h 0 min

  89. Bit rate : 12.8 kb/s

  90. Count of elements : 1740

  91. Stream size : 11.1 MiB (0%)

  92. Title : CHT

  93. Language : Chinese

  94. Default : Yes

  95. Forced : No

  96. Menu

  97. 00:00:00.000 : en:第 01 章

  98. 00:12:17.737 : en:第 02 章

  99. 00:20:58.841 : en:第 03 章

  100. 00:30:02.384 : en:第 04 章

  101. 00:35:05.103 : en:第 05 章

  102. 00:41:05.046 : en:第 06 章

  103. 00:50:43.082 : en:第 07 章

  104. 00:56:39.688 : en:第 08 章

  105. 01:06:54.010 : en:第 09 章

  106. 01:17:36.902 : en:第 10 章

  107. 01:21:00.481 : en:第 11 章

  108. 01:25:46.767 : en:第 12 章

  109. 01:32:42.974 : en:第 13 章

  110. 01:44:07.199 : en:第 14 章

  111. 01:54:12.387 : en:第 15 章


复制代码


TAGS 动作 恐怖 /

磁力链:
  • magnet:?xt=urn:btih:5D05C81A6D1EB29FC1B19261554CEA595D7640CB
上传的附件:
BT9527电影天堂 1、BT9527电影天堂提供的BT文件均来源于互联网抓取,只供网友学习交流、技术提升使用。
2、我们遵守BitTorrent点对点协议原则,任何版权问题请联系原资源发布商,我们不处理任何版权纠纷,谢谢!如有争议请联系邮箱:BT9527#hotmail.com(#换成@)
3、如果您发现某页面或地址有错误,请联系站长邮箱BT9527#hotmail.com(#换成@),我们会尽快处理。您的热心是对BT9527电影天堂最大的支持。
4、本站建议去正规影院观看电影以支持电影行业发展。
最新回复 (0)

你可以在 登录 or 注册 后,对此帖发表评论!

返回