韩塞尔与葛雷特[中文字幕].Hansel.And.Gretel.2007.1080p.WEB-DL.AAC.2.0.H.264-CTRLWEB 3.17GB

版主小s 4月前 508

◎译 名 韩塞尔与葛雷特 / 鬼怪密林 / 魔幻谜林 / Hansel & Gretel

◎片 名 ??? ???

◎年 代 2007

◎产 地 韩国

◎类 别 剧情 / 悬疑 / 恐怖 / 奇幻

◎语 言 韩语

◎上映日期 2007-12-27

◎IMDb链接 https://www.imdb.com/title/tt1002567/

◎豆瓣评分 7.1/10 (7774人评价)

◎豆瓣链接 https://movie.douban.com/subject/3001142/

◎片 长 117 分钟

◎导 演 任弼星 Pil-Sung Yim (id:1309401)

◎编 剧 任弼星 Pil-Sung Yim (id:1309401)

金智慧 Ji-hye Kim (id:1337073)

◎演 员 千正明 Jeong-myeong Cheon (id:1037836)

陈智熙 Ji-hee Jin (id:1275681)

沈恩京 Eun-kyung Shim (id:1315769)

金敬益 Kyung-ik Kim (id:1382166)

高俊熙 Jun-hee Ko (id:1320109)

张荣男 Young-nam Jang (id:1170566)

李丙雨 Byung-woo Lee (id:1289650)

金智龙 Ji-yong Kim (id:1328079)

金鲜珉 Sun-min Kim (id:1302605)

柳星姬 Seong-hie Ryu (id:1307424)

李庸基 Yong-Gi Lee (id:1314650)

◎简 介

因母亲染病,青年李恩洙(千正明 饰)驱车向家中赶去,但中途遭遇车祸,翻到路边。当他从昏迷中醒来时,发现眼前站着一个有如天使般的女孩子(沈恩京 饰)。在这个名叫英姬的女孩的引导下,恩洙随之来到了女孩位于密林深处的家。那是一幢宛如从童话书中出来的梦幻而华美的大房子,家中摆放着各种各样精巧可爱的饰品。这里住着英姬、她的父母、哥哥万福(殷元宰 饰)以及妹妹贞顺(陈智熙 饰)。疲劳疼痛的恩洙起初并未察觉丝毫一样,可是他很快便发现,如此美好的童话所在竟成为永远无法逃离的樊篱……

本片荣获2009年葡萄牙奇幻国际电影节评委会特别奖。

  1. ##### MediaInfo ######

  2. General

  3. Unique ID : 82734942863349555807507067319132455878 (0x3E3E2B9EBABD3B2476523E62B03583C6)

  4. Complete name : Hansel.And.Gretel.2007.1080p.WEB-DL.AAC.2.0.H.264-CTRLWEB.mkv

  5. Format : Matroska

  6. Format version : Version 4

  7. File size : 3.17 GiB

  8. Duration : 1 h 57 min

  9. Overall bit rate : 3 876 kb/s

  10. Encoded date : UTC 2022-05-26 05:30:14

  11. Writing application : mkvmerge v65.0.0 ('Too Much') 64-bit

  12. Writing library : libebml v1.4.2 + libmatroska v1.6.4

  13. Video

  14. ID : 1

  15. Format : AVC

  16. Format/Info : Advanced Video Codec

  17. Format profile : High@L4.1

  18. Format settings : CABAC / 1 Ref Frames

  19. Format settings, CABAC : Yes

  20. Format settings, Reference frames : 1 frame

  21. Format settings, GOP : M=1, N=60

  22. Codec ID : V_MPEG4/ISO/AVC

  23. Duration : 1 h 57 min

  24. Bit rate mode : Constant

  25. Bit rate : 3 748 kb/s

  26. Nominal bit rate : 4 000 kb/s

  27. Width : 1 920 pixels

  28. Height : 1 080 pixels

  29. Display aspect ratio : 16:9

  30. Frame rate mode : Constant

  31. Frame rate : 29.970 (30000/1001/53354) FPS

  32. Color space : YUV

  33. Chroma subsampling : 4:2:0

  34. Bit depth : 8 bits

  35. Scan type : Progressive

  36. Bits/(Pixel*Frame) : 0.060

  37. Stream size : 3.06 GiB (97%)

  38. Default : Yes

  39. Forced : No

  40. Audio

  41. ID : 2

  42. Format : AAC LC

  43. Format/Info : Advanced Audio Codec Low Complexity

  44. Codec ID : A_AAC-2

  45. Duration : 1 h 57 min

  46. Bit rate : 125 kb/s

  47. Channel(s) : 2 channels

  48. Channel layout : L R

  49. Sampling rate : 48.0 kHz

  50. Frame rate : 46.875 FPS (1024 SPF)

  51. Compression mode : Lossy

  52. Stream size : 105 MiB (3%)

  53. Default : Yes

  54. Forced : No

  55. Text

  56. ID : 3

  57. Format : UTF-8

  58. Codec ID : S_TEXT/UTF8

  59. Codec ID/Info : UTF-8 Plain Text

  60. Duration : 1 h 50 min

  61. Bit rate : 30 b/s

  62. Count of elements : 1098

  63. Stream size : 25.0 KiB (0%)

  64. Title : Traditional (SDH)

  65. Language : Chinese

  66. Default : No

  67. Forced : No


复制代码


TAGS 奇幻 剧情 恐怖 悬疑 /

磁力链:
  • magnet:?xt=urn:btih:F4656A8C3B350FC1806F25BAD88A2E3045485A5F
上传的附件:
BT9527电影天堂 1、BT9527电影天堂提供的BT文件均来源于互联网抓取,只供网友学习交流、技术提升使用。
2、我们遵守BitTorrent点对点协议原则,任何版权问题请联系原资源发布商,我们不处理任何版权纠纷,谢谢!如有争议请联系邮箱:BT9527#hotmail.com(#换成@)
3、如果您发现某页面或地址有错误,请联系站长邮箱BT9527#hotmail.com(#换成@),我们会尽快处理。您的热心是对BT9527电影天堂最大的支持。
4、本站建议去正规影院观看电影以支持电影行业发展。
最新回复 (0)

你可以在 登录 or 注册 后,对此帖发表评论!

返回
发新帖