淘金俏冤家[简英字幕].Fool's.Gold.2008.1080p.BluRay.DD5.1.x265-10bit-ENTHD 6.96GB

版主小s 1月前 120



◎译  名 淘金俏冤家 / 傻爱成金 / 金钱游戏 / 爱情潜到宝
◎片  名 Fool's Gold
◎年  代 2008
◎产  地 美国
◎类  别 喜剧 / 爱情 / 惊悚 / 冒险
◎语  言 英语
◎上映日期 2008-02-08
◎IMDb链接 https://www.imdb.com/title/tt0770752/
◎豆瓣评分 5.8/10 (4881人评价)
◎豆瓣链接 https://movie.douban.com/subject/1920730/
◎片  长 113 分钟
◎导  演 安迪·坦纳特 Andy Tennant (id:1315521)
◎编  剧 丹尼尔·泽尔曼 Daniel Zelman (id:1018236)
       安迪·坦纳特 Andy Tennant (id:1315521)
◎演  员 马修·麦康纳 Matthew McConaughey (id:1040511)
       凯特·哈德森 Kate Hudson (id:1035673)
       唐纳德·萨瑟兰 Donald Sutherland (id:1010556)
       阿丽西丝·泽纳 Alexis Dziena (id:1009258)
       艾文·布莱纳 Ewen Bremner (id:1004679)
       雷·温斯顿 Ray Winstone (id:1006977)
       大卫·罗伯茨 David Roberts (id:1295760)
       凯文·哈特 Kevin Hart (id:1286162)
       埃迪·里查德 Eddie Ritchard (id:1336808)
       托德·拉桑斯 Todd Lasance (id:1254278)
       罗杰·西贝拉斯 Roger Sciberras (id:1253004)
       布莱恩·胡克斯 Brian Hooks (id:1023018)
       亚当·勒费弗 Adam LeFevre (id:1105435)
       马尔科姆-贾马尔·华纳 Malcolm-Jamal Warner (id:1165903)
       Clementine Heath Clementine Heath (id:1214524)
       杜坎·杨 Duncan Young (id:1216961)
       罗汉·尼克尔 Rohan Nichol (id:1223935)
       乔治·芬顿 George Fenton (id:1028224)
       唐·伯吉斯 Don Burgess (id:1018519)
       乔尔·贝斯特洛浦 Juel Bestrop (id:1278551)
       戴米恩·德鲁 Damien Drew (id:1303150)
       查尔斯·伍德 Charles Wood (id:1301217)
       Peter Russell Peter Russell (id:1296353)
       Ray Chan Ray Chan (id:1280437)
       恩吉拉·迪克森 Ngila Dickson (id:1282410)
       凯瑟琳·布伦黛尔 Kathryn Blondell (id:1067362)
       尼基·古利 Nikki Gooley (id:1285161)
       西安·格里格 Sian Grigg (id:1285472)
        Migs Rustia (id:1230977)
       Chris B. Schnitzer Chris B. Schnitzer (id:1142061)

◎简  介
  本杰明·芬恩·费尼根(马修·麦康纳 Matthew McConaughey 饰)是一名疯狂的淘金猎人,淘金的热情使他无法如常人一般找份像样的工作养家糊口,他的妻子苔丝(凯特·哈德森 Kate Hudson 饰)也向他提出离婚,并在千万富翁奈杰尔(唐纳德·萨瑟兰 Donald Sutherland 饰)的巨轮上找了份不错的工作。一次意外的沉船事故中,芬恩无意中发现一枚碟子碎片,并推断这来源于一批失落了300多年的皇家财产,而这批财产同时也是他与妻子苦寻了8年的共同理想,芬恩决定这次决不放弃,然而周围却没有一个人相信他的推测。芬恩唯有想出了一个无厘头却不失精妙的方法登上了奈杰尔的船,并能言善辩地说服了杰奈尔与其女儿,甚至是苔丝也加入寻宝计划。然而与此同时,淘金团伙Bigg Bunny和芬恩的前导师已经盯上了他们,一场螳螂捕蝉黄雀在后的淘金好戏,即将上演…...

◎获奖情况 (共1项)
  第29届金酸莓奖 (2009)
  最差女主角(提名)
   └──凯特·哈德森 (id:1035673)

  1. ##### MediaInfo ######
  2. General
  3. Unique ID                                : 292356556573468132514809038919694249728 (0xDBF1D31DDA7F4270A53D2301E71F6F00)
  4. Complete name                            : Fool's.Gold.2008.1080p.BluRay.DD5.1.x265-10bit-ENTHD.mkv
  5. Format                                   : Matroska
  6. Format version                           : Version 4
  7. File size                                : 6.96 GiB
  8. Duration                                 : 1 h 52 min
  9. Overall bit rate                         : 8 867 kb/s
  10. Movie name                               : Fool's Gold 2008 1080p BluRay DD5.1 x265-10bit-HDS
  11. Encoded date                             : UTC 2022-05-30 07:46:44
  12. Writing application                      : mkvmerge v67.0.0 ('Under Stars') 64-bit
  13. Writing library                          : libebml v1.4.2 + libmatroska v1.6.4
  14. Video
  15. ID                                       : 1
  16. Format                                   : HEVC
  17. Format/Info                              : High Efficiency Video Coding
  18. Format profile                           : Main 10@L5.1@High
  19. Codec ID                                 : V_MPEGH/ISO/HEVC
  20. Duration                                 : 1 h 52 min
  21. Bit rate                                 : 8 198 kb/s
  22. Width                                    : 1 920 pixels
  23. Height                                   : 796 pixels
  24. Display aspect ratio                     : 2.40:1
  25. Frame rate mode                          : Constant
  26. Frame rate                               : 23.976 (24000/1001/53354) FPS
  27. Color space                              : YUV
  28. Chroma subsampling                       : 4:2:0
  29. Bit depth                                : 10 bits
  30. Bits/(Pixel*Frame)                       : 0.224
  31. Stream size                              : 6.44 GiB (92%)
  32. Title                                    : szlcug@HDSky
  33. Writing library                          : x265 - H.265/HEVC codec
  34. Default                                  : Yes
  35. Forced                                   : No
  36. Audio
  37. ID                                       : 2
  38. Format                                   : AC-3
  39. Format/Info                              : Audio Coding 3
  40. Commercial name                          : Dolby Digital
  41. Codec ID                                 : A_AC3
  42. Duration                                 : 1 h 52 min
  43. Bit rate mode                            : Constant
  44. Bit rate                                 : 640 kb/s
  45. Channel(s)                               : 6 channels
  46. Channel layout                           : L R C LFE Ls Rs
  47. Sampling rate                            : 48.0 kHz
  48. Frame rate                               : 31.250 FPS (1536 SPF)
  49. Compression mode                         : Lossy
  50. Stream size                              : 515 MiB (7%)
  51. Title                                    : English
  52. Language                                 : English
  53. Service kind                             : Complete Main
  54. Default                                  : Yes
  55. Forced                                   : No
  56. Text #1
  57. ID                                       : 3
  58. Format                                   : PGS
  59. Muxing mode                              : zlib
  60. Codec ID                                 : S_HDMV/PGS
  61. Codec ID/Info                            : Picture based subtitle format used on BDs/HD-DVDs
  62. Duration                                 : 1 h 48 min
  63. Bit rate                                 : 32.0 kb/s
  64. Count of elements                        : 2774
  65. Stream size                              : 24.9 MiB (0%)
  66. Title                                    : ENG
  67. Language                                 : English
  68. Default                                  : Yes
  69. Forced                                   : No
  70. Text #2
  71. ID                                       : 4
  72. Format                                   : PGS
  73. Muxing mode                              : zlib
  74. Codec ID                                 : S_HDMV/PGS
  75. Codec ID/Info                            : Picture based subtitle format used on BDs/HD-DVDs
  76. Duration                                 : 1 h 52 min
  77. Bit rate                                 : 22.2 kb/s
  78. Count of elements                        : 2464
  79. Stream size                              : 17.8 MiB (0%)
  80. Title                                    : CHS
  81. Language                                 : Chinese
  82. Default                                  : Yes
  83. Forced                                   : No
  84. Menu
  85. 00:00:00.000                             : en:第 01 章
  86. 00:06:51.411                             : en:第 02 章
  87. 00:09:28.902                             : en:第 03 章
  88. 00:15:07.573                             : en:第 04 章
  89. 00:21:36.128                             : en:第 05 章
  90. 00:25:33.365                             : en:第 06 章
  91. 00:30:55.520                             : en:第 07 章
  92. 00:35:23.788                             : en:第 08 章
  93. 00:38:57.835                             : en:第 09 章
  94. 00:47:10.995                             : en:第 10 章
  95. 00:51:34.425                             : en:第 11 章
  96. 00:56:03.026                             : en:第 12 章
  97. 01:00:26.122                             : en:第 13 章
  98. 01:02:48.598                             : en:第 14 章
  99. 01:08:26.936                             : en:第 15 章
  100. 01:13:28.237                             : en:第 16 章
  101. 01:18:46.221                             : en:第 17 章
  102. 01:25:29.291                             : en:第 18 章
  103. 01:28:26.134                             : en:第 19 章
  104. 01:32:18.700                             : en:第 20 章
  105. 01:36:29.617                             : en:第 21 章
  106. 01:39:50.484                             : en:第 22 章
  107. 01:43:28.369                             : en:第 23 章
  108. 01:46:46.066                             : en:第 24 章
  109. 01:48:05.479                             : en:第 25 章
复制代码




TAGS 冒险 惊悚 喜剧 爱情 /

磁力链:
  • magnet:?xt=urn:btih:034F9152DF33517AF1D67FE5B7E44347A2C15FA8
上传的附件:
BT9527电影天堂 1、BT9527电影天堂提供的BT文件均来源于互联网抓取,只供网友学习交流、技术提升使用。
2、我们遵守BitTorrent点对点协议原则,任何版权问题请联系原资源发布商,我们不处理任何版权纠纷,谢谢!如有争议请联系邮箱:BT9527#hotmail.com(#换成@)
3、如果您发现某页面或地址有错误,请联系站长邮箱BT9527#hotmail.com(#换成@),我们会尽快处理。您的热心是对BT9527电影天堂最大的支持。
4、本站建议去正规影院观看电影以支持电影行业发展。
最新回复 (0)

你可以在 登录 or 注册 后,对此帖发表评论!

返回
发新帖