法蒂玛[中文字幕].Fatima.2020.2160p.HAMI.WEB-DL.AAC2.0.x264-CTRLWEB 14.53GB

版主小s 1月前 166

◎译 名 法蒂玛 / 花地玛:玫瑰神迹降临(港) / 法蒂玛的奇迹(台)

◎片 名 Fatima

◎年 代 2020

◎产 地 葡萄牙 / 美国

◎类 别 剧情

◎语 言 英语

◎上映日期 2020-08-14(加拿大) / 2020-08-28(美国)

◎IMDb链接 https://www.imdb.com/title/tt2197936/

◎豆瓣评分 6.9/10 (439人评价)

◎豆瓣链接 https://movie.douban.com/subject/27046731/

◎片 长 113分钟

◎导 演 马克·彭特克沃 Marco Pontecorvo (id:1042102)

◎编 剧 Barbara Nicolosi Barbara Nicolosi (id:1036243)

马克·彭特克沃 Marco Pontecorvo (id:1042102)

◎演 员 哈威·凯特尔 Harvey Keitel (id:1048131)

高兰·维斯耶克 Goran Visnjic (id:1049703)

索尼娅·布拉加 Sonia Braga (id:1054646)

乔昆姆·德·阿尔梅达 Joaquim de Almeida (id:1032083)

露西娅·莫尼斯 Lúcia Moniz (id:1117677)

乔安娜·里贝罗 Joana Ribeiro (id:1410065)

阿尔芭·巴普蒂斯塔 Alba Baptista (id:1417535)

约翰·尤海斯 Jo?o Arrais (id:1237180)

马可·德阿尔梅达 Marco D'Almeida (id:1201638)

Dinarte de Freitas Dinarte de Freitas (id:1188108)

安娜·莫雷拉 Ana Moreira (id:1005866)

Victor Emanuel Victor Emanuel (id:1081051)

路易莎·克鲁兹 Luísa Cruz (id:1356569)

Carla Chambel Carla Chambel (id:1180431)

Isabel Ruth Isabel Ruth (id:1144954)

Sim?o Cayatte Sim?o Cayatte (id:1334292)

玛丽亚·德雷斯 Maria d'Aires (id:1281687)

Carmen Santos Carmen Santos (id:1143896)

Margarida Cardeal Margarida Cardeal (id:1075285)

Jo?o D'ávila Jo?o D'ávila (id:1067670)

José Eduardo José Eduardo (id:1085095)

埃尔马诺·桑丘 Elmano Sancho (id:1365720)

Paula Luiz (id:1224768)

Sofia Espírito Santo (id:1246023)

Luisa Ortigoso Luisa Ortigoso (id:1201823)

Manuel Moreira Manuel Moreira (id:1131684)

艾瑞斯·卡亚特 Iris Cayatte (id:1470524)

◎简 介

哈威·凯特尔、索尼娅·布拉加([水瓶座])将出演新片[法蒂玛]。该片根据真实事件改编,讲述在葡萄牙法蒂玛,三个孩子声称目睹了圣母玛利亚显灵,并预言了灾难即将来临。其中两人在1917-1918年死于流感病毒,而他们在前一个星期才接受了教皇的洗礼。该片将由马克·彭特克沃([天气晴有时多云])执导,目前正处制作阶段。

  1. ##### MediaInfo ######

  2. General

  3. Unique ID : 306746254894205787182861229122562280029 (0xE6C52E04F1A84E713F4C3802F483CA5D)

  4. Complete name : Fatima.2020.2160p.HAMI.WEB-DL.AAC2.0.x264-CTRLWEB.mkv

  5. Format : Matroska

  6. Format version : Version 4

  7. File size : 14.5 GiB

  8. Duration : 1 h 52 min

  9. Overall bit rate : 18.4 Mb/s

  10. Encoded date : UTC 2022-05-30 02:56:10

  11. Writing application : mkvmerge v65.0.0 ('Too Much') 64-bit

  12. Writing library : libebml v1.4.2 + libmatroska v1.6.4

  13. Video

  14. ID : 1

  15. Format : AVC

  16. Format/Info : Advanced Video Codec

  17. Format profile : High@L5

  18. Format settings : CABAC / 3 Ref Frames

  19. Format settings, CABAC : Yes

  20. Format settings, Reference frames : 3 frames

  21. Format settings, GOP : M=1, N=30

  22. Codec ID : V_MPEG4/ISO/AVC

  23. Duration : 1 h 52 min

  24. Bit rate : 18.3 Mb/s

  25. Nominal bit rate : 20.0 Mb/s

  26. Width : 3 840 pixels

  27. Height : 2 160 pixels

  28. Display aspect ratio : 16:9

  29. Frame rate mode : Constant

  30. Frame rate : 30.000 FPS

  31. Color space : YUV

  32. Chroma subsampling : 4:2:0

  33. Bit depth : 8 bits

  34. Scan type : Progressive

  35. Bits/(Pixel*Frame) : 0.074

  36. Stream size : 14.4 GiB (99%)

  37. Writing library : x264 core 157 r2935 545de2f

  38. Encoding settings : cabac=1 / ref=3 / deblock=1:0:0 / analyse=0x3:0x113 / me=hex / subme=7 / psy=1 / psy_rd=1.00:0.00 / mixed_ref=1 / me_range=16 / chroma_me=1 / trellis=1 / 8x8dct=1 / cqm=0 / deadzone=21,11 / fast_pskip=1 / chroma_qp_offset=-2 / threads=67 / lookahead_threads=11 / sliced_threads=0 / nr=0 / decimate=1 / interlaced=0 / NTMzNTQ= / bluray_compat=0 / constrained_intra=0 / bframes=0 / weightp=2 / keyint=30 / keyint_min=16 / scenecut=0 / intra_refresh=0 / rc_lookahead=30 / rc=cbr / mbtree=1 / bitrate=20000 / ratetol=1.0 / qcomp=0.60 / qpmin=0 / qpmax=69 / qpstep=4 / vbv_maxrate=20000 / vbv_bufsize=20000 / nal_hrd=none / filler=0 / NTMzNTQ=LmsMAP37EqsCpk / ip_ratio=1.40 / aq=1:1.00

  39. Default : Yes

  40. Forced : No

  41. Audio

  42. ID : 2

  43. Format : AAC LC

  44. Format/Info : Advanced Audio Codec Low Complexity

  45. Codec ID : A_AAC-2

  46. Duration : 1 h 52 min

  47. Bit rate : 127 kb/s

  48. Channel(s) : 2 channels

  49. Channel layout : L R

  50. Sampling rate : 48.0 kHz

  51. Frame rate : 46.875 FPS (1024 SPF)

  52. Compression mode : Lossy

  53. Stream size : 103 MiB (1%)

  54. Language : English

  55. Default : Yes

  56. Forced : No


复制代码


TAGS 剧情

磁力链:
  • magnet:?xt=urn:btih:1B754620BF7BAD5599050A59F0ED16397D292B74
上传的附件:
BT9527电影天堂 1、BT9527电影天堂提供的BT文件均来源于互联网抓取,只供网友学习交流、技术提升使用。
2、我们遵守BitTorrent点对点协议原则,任何版权问题请联系原资源发布商,我们不处理任何版权纠纷,谢谢!如有争议请联系邮箱:BT9527#hotmail.com(#换成@)
3、如果您发现某页面或地址有错误,请联系站长邮箱BT9527#hotmail.com(#换成@),我们会尽快处理。您的热心是对BT9527电影天堂最大的支持。
4、本站建议去正规影院观看电影以支持电影行业发展。
最新回复 (0)

你可以在 登录 or 注册 后,对此帖发表评论!

返回
发新帖