冒险王[国粤英多音轨/繁英字幕].Dr.Wai.In.The.Scripture.With.No.Words.1996.BluRay.1080p.2Audio.TrueHD.7.1.x265.10bit-ALT 10.98GB

版主小s 1月前 153



◎译  名 冒险王 / Dr. Wai in the Scripture With No Words
◎片  名 冒險王
◎年  代 1996
◎产  地 中国香港 / 中国大陆
◎类  别 动作
◎语  言 粤语 / 汉语普通话
◎上映日期 1996-03-14(中国香港) / 1996-02-10(韩国)
◎IMDb链接 https://www.imdb.com/title/tt0110463/
◎豆瓣评分 6.8/10 (56416人评价)
◎豆瓣链接 https://movie.douban.com/subject/1294114/
◎片  长 90分钟
◎导  演 程小东 Siu-Tung Ching (id:1280664)
◎编  剧 林伟伦 Wai-Lun Lam (id:1320058)
       司徒卓汉 Chuek-Hon Szeto (id:1314905)
◎演  员 李连杰 Jet Li (id:1025146)
       关之琳 Rosamund Kwan (id:1028064)
       金城武 Takeshi Kaneshiro (id:1027883)
       杨采妮 Charlie Yeung (id:1018373)
       罗家英 Kar-Ying Law (id:1108968)
       邹兆龙 Collin Chou (id:1022821)
       周比利 Billy Chow (id:1050501)
       江约诚 Johnnie Kong Yeuk-Sing (id:1320946)
       刘满棠 Moon-Tong Lau (id:1289492)
       麦子善 Marco Mak (id:1280638)
       林安儿 Angie Lam (id:1038152)
       付德林 Delin Fu (id:1330705)
       莫少奇 Jason Mok (id:1292297)
       刘兵 Bing Liu (id:1425805)
       冯君孟 William Fung (id:1284331)
       莫均杰 Kwan Kit Mok (id:1292292)
       吕荫培 Yinpei Lü (id:1451316)
       马彦量 Yin-leung Ma (id:1290576)
       马玉成 Yuk-Sing Ma (id:1290582)
       林峰 Feng Lin (id:1322676)
       程小东 Siu-Tung Ching (id:1280664)
       何添 Tim Ho (id:1408607)

◎简  介
  电视剧编剧周世杰(李连杰)被妻子莫尼卡(关之琳)闹离婚,郁闷之下开始编写剧集《冒险王》的剧本,想象中他成了民国时代的冒险王卫亦信,莫妮卡变作日本特务美加子,藉此宣泄郁闷。                                    
                                唐三藏当年西天取得、今下落不明的无字真经成为中国及日本政府争抢的目标,为免日本人捷足先登,中国政府邀请考古专家卫亦信及其徒弟包教晓(金城武)追查真经下落,得知线索在经盒表面,两人混入日本领事馆,结识身份神秘的美女美加子,后两人又追线索到某日报社,从编辑英叔(罗家英)口中知晓经盒下落,但消息亦被美加子得知。

◎获奖情况 (共2项)
  第33届台北金马影展 (1996)
  金马奖 最佳视觉效果
   └──马彦量 (id:1290576)

  第16届香港电影金像奖 (1997)
  最佳动作设计(提名)

  1. ##### MediaInfo ######
  2. General
  3. Unique ID                                : 212403233459321914458112206465741911085 (0x9FCB5FF04C25A5073C37646B0D34742D)
  4. Complete name                            : Dr.Wai.In.The.Scripture.With.No.Words.1996.BluRay.1080p.2Audio.TrueHD.7.1.x265.10bit-ALT.mkv
  5. Format                                   : Matroska
  6. Format version                           : Version 4
  7. File size                                : 11.0 GiB
  8. Duration                                 : 1 h 30 min
  9. Overall bit rate mode                    : Variable
  10. Overall bit rate                         : 17.4 Mb/s
  11. Encoded date                             : UTC 2022-05-30 05:29:46
  12. Writing application                      : mkvmerge v49.0.0 ('Sick Of Losing Soulmates') 64-bit
  13. Writing library                          : libebml v1.4.0 + libmatroska v1.6.1
  14. Video
  15. ID                                       : 1
  16. Format                                   : HEVC
  17. Format/Info                              : High Efficiency Video Coding
  18. Format profile                           : Main 10@L5.1@High
  19. Codec ID                                 : V_MPEGH/ISO/HEVC
  20. Duration                                 : 1 h 30 min
  21. Bit rate                                 : 11.9 Mb/s
  22. Width                                    : 1 910 pixels
  23. Height                                   : 800 pixels
  24. Display aspect ratio                     : 2.40:1
  25. Frame rate mode                          : Constant
  26. Frame rate                               : 24.000 FPS
  27. Color space                              : YUV
  28. Chroma subsampling                       : 4:2:0
  29. Bit depth                                : 10 bits
  30. Bits/(Pixel*Frame)                       : 0.326
  31. Stream size                              : 7.55 GiB (69%)
  32. Title                                    : HEVC, x265Main10@L5.1@High, 24 fps @ 11942 kbps
  33. Writing library                          : x265 3.5+36-1f2c8da77:[Windows][GCC 11.2.0][64 bit] 10bit
  34. Encoding settings                        : cpuid=533541111039 / frame-threads=4 / numa-pools=16 / wpp / no-pmode / no-pme / no-psnr / no-ssim / log-level=2 / input-csp=1 / input-res=1910x800 / interlace=0 / total-frames=130394 / level-idc=51 / high-tier=1 / uhd-bd=0 / ref=5 / no-allow-non-conformance / no-repeat-headers / annexb / no-aud / no-eob / no-eos / no-hrd / info / hash=0 / no-temporal-layers / open-gop / min-keyint=24 / keyint=240 / gop-lookahead=0 / bframes=6 / b-adapt=2 / b-pyramid / bframe-bias=0 / rc-lookahead=40 / lookahead-slices=0 / NTMzNTQ=uuDQuD2mJt9fsCf / scenecut=40 / no-hist-scenecut / radl=0 / no-splice / no-intra-refresh / ctu=32 / min-cu-size=8 / no-rect / no-amp / max-tu-size=32 / tu-inter-depth=3 / tu-intra-depth=3 / limit-tu=4 / rdoq-level=2 / dynamic-rd=0.00 / no-ssim-rd / signhide / no-tskip / nr-intra=0 / nr-inter=0 / no-constrained-intra / no-strong-intra-smoothing / max-merge=4 / limit-refs=1 / limit-modes / me=3 / subme=4 / merange=25 / temporal-mvp / no-frame-dup / no-hme / weightp / weightb / no-analyze-src-pics / deblock=-3:-3 / no-sao / no-sao-non-deblock / rd=6 / selective-sao=0 / no-early-skip / rskip / no-fast-intra / no-tskip-fast / no-cu-lossless / b-intra / no-splitrd-skip / rdpenalty=0 / psy-rd=2.00 / psy-rdoq=1.00 / no-rd-refine / no-lossless / cbqpoffs=-2 / crqpoffs=-2 / rc=crf / crf=18.5 / qcomp=0.65 / qpstep=4 / stats-write=0 / stats-read=0 / vbv-maxrate=80000 / vbv-bufsize=80000 / vbv-init=0.9 / min-vbv-fullness=50.0 / max-vbv-fullness=80.0 / crf-max=0.0 / crf-min=0.0 / ipratio=1.40 / pbratio=1.30 / aq-mode=2 / aq-strength=0.85 / cutree / zone-count=0 / no-strict-cbr / qg-size=32 / no-rc-grain / qpmax=69 / qpmin=0 / no-const-vbv / sar=1 / overscan=0 / videoformat=5 / range=0 / colorprim=1 / transfer=1 / colormatrix=1 / chromaloc=0 / display-window=0 / cll=0,0 / min-luma=0 / max-luma=1023 / log2-max-poc-lsb=8 / vui-timing-info / vui-hrd-info / slices=1 / no-opt-qp-pps / no-opt-ref-list-length-pps / no-multi-pass-opt-rps / scenecut-bias=0.05 / hist-threshold=0.03 / no-opt-cu-delta-qp / no-aq-motion / no-hdr10 / no-hdr10-opt / no-dhdr10-opt / no-idr-recovery-sei / analysis-reuse-level=0 / analysis-save-reuse-level=0 / analysis-load-reuse-level=0 / scale-factor=0 / refine-intra=0 / refine-inter=0 / refine-mv=1 / refine-ctu-distortion=0 / no-limit-sao / ctu-info=0 / no-lowpass-dct / refine-analysis-type=0 / copy-pic=1 / max-ausize-factor=1.0 / no-dynamic-refine / no-single-sei / no-hevc-aq / no-svt / no-field / qp-adaptation-range=1.00 / scenecut-aware-qp=0conformance-window-offsets / right=0 / bottom=0 / NTMzNTQ= / decoder-max-rate=0 / no-vbv-live-multi-pass
  35. Language                                 : English
  36. Default                                  : Yes
  37. Forced                                   : No
  38. Color range                              : Limited
  39. Color primaries                          : BT.709
  40. Transfer characteristics                 : BT.709
  41. Matrix coefficients                      : BT.709
  42. Audio #1
  43. ID                                       : 2
  44. Format                                   : MLP FBA
  45. Format/Info                              : Meridian Lossless Packing FBA
  46. Commercial name                          : Dolby TrueHD
  47. Codec ID                                 : A_TRUEHD
  48. Duration                                 : 1 h 30 min
  49. Bit rate mode                            : Variable
  50. Bit rate                                 : 3 981 kb/s
  51. Maximum bit rate                         : 5 658 kb/s
  52. Channel(s)                               : 8 channels
  53. Channel layout                           : L R C LFE Ls Rs Lb Rb
  54. Sampling rate                            : 48.0 kHz
  55. Frame rate                               : 1 200.000 FPS (40 SPF)
  56. Compression mode                         : Lossless
  57. Delay relative to video                  : 83 ms
  58. Stream size                              : 2.51 GiB (23%)
  59. Title                                    : Cantonese Dolby TrueHD 7.1 @ 4621 kbps
  60. Language                                 : Chinese
  61. Default                                  : Yes
  62. Forced                                   : No
  63. Audio #2
  64. ID                                       : 3
  65. Format                                   : AC-3
  66. Format/Info                              : Audio Coding 3
  67. Commercial name                          : Dolby Digital
  68. Codec ID                                 : A_AC3
  69. Duration                                 : 1 h 30 min
  70. Bit rate mode                            : Constant
  71. Bit rate                                 : 640 kb/s
  72. Channel(s)                               : 6 channels
  73. Channel layout                           : L R C LFE Ls Rs
  74. Sampling rate                            : 48.0 kHz
  75. Frame rate                               : 31.250 FPS (1536 SPF)
  76. Compression mode                         : Lossy
  77. Delay relative to video                  : 83 ms
  78. Stream size                              : 414 MiB (4%)
  79. Title                                    : Cantonese Dolby Digital Audio 5.1 @ 640 kbps
  80. Language                                 : Chinese
  81. Service kind                             : Complete Main
  82. Default                                  : No
  83. Forced                                   : No
  84. Audio #3
  85. ID                                       : 4
  86. Format                                   : AC-3
  87. Format/Info                              : Audio Coding 3
  88. Commercial name                          : Dolby Digital
  89. Codec ID                                 : A_AC3
  90. Duration                                 : 1 h 30 min
  91. Bit rate mode                            : Constant
  92. Bit rate                                 : 640 kb/s
  93. Channel(s)                               : 6 channels
  94. Channel layout                           : L R C LFE Ls Rs
  95. Sampling rate                            : 48.0 kHz
  96. Frame rate                               : 31.250 FPS (1536 SPF)
  97. Compression mode                         : Lossy
  98. Stream size                              : 414 MiB (4%)
  99. Title                                    : Mandarin Dolby Digital Audio 5.1 @ 640 kbps
  100. Language                                 : Chinese
  101. Service kind                             : Complete Main
  102. Default                                  : No
  103. Forced                                   : No
  104. Text #1
  105. ID                                       : 5
  106. Format                                   : PGS
  107. Codec ID                                 : S_HDMV/PGS
  108. Codec ID/Info                            : Picture based subtitle format used on BDs/HD-DVDs
  109. Duration                                 : 1 h 27 min
  110. Bit rate                                 : 50.0 kb/s
  111. Count of elements                        : 2682
  112. Stream size                              : 31.2 MiB (0%)
  113. Title                                    : Cht/SUP  原盘繁体
  114. Language                                 : Chinese
  115. Default                                  : Yes
  116. Forced                                   : No
  117. Text #2
  118. ID                                       : 6
  119. Format                                   : PGS
  120. Codec ID                                 : S_HDMV/PGS
  121. Codec ID/Info                            : Picture based subtitle format used on BDs/HD-DVDs
  122. Duration                                 : 1 h 27 min
  123. Bit rate                                 : 45.0 kb/s
  124. Count of elements                        : 2682
  125. Stream size                              : 28.1 MiB (0%)
  126. Title                                    : Eng/SUP
  127. Language                                 : English
  128. Default                                  : No
  129. Forced                                   : No
  130. Menu
  131. 00:00:00.000                             : en:第 01 章
  132. 00:04:49.292                             : en:第 02 章
  133. 00:09:35.583                             : en:第 03 章
  134. 00:14:39.208                             : en:第 04 章
  135. 00:18:18.000                             : en:第 05 章
  136. 00:22:55.833                             : en:第 06 章
  137. 00:27:21.375                             : en:第 07 章
  138. 00:30:34.000                             : en:第 08 章
  139. 00:35:29.625                             : en:第 09 章
  140. 00:39:50.167                             : en:第 10 章
  141. 00:44:01.583                             : en:第 11 章
  142. 00:47:17.167                             : en:第 12 章
  143. 00:51:15.708                             : en:第 13 章
  144. 00:55:52.208                             : en:第 14 章
  145. 01:01:03.792                             : en:第 15 章
  146. 01:05:38.250                             : en:第 16 章
  147. 01:10:22.625                             : en:第 17 章
  148. 01:16:00.667                             : en:第 18 章
  149. 01:20:20.500                             : en:第 19 章
  150. 01:24:46.375                             : en:第 20 章
复制代码




TAGS 动作

磁力链:
  • magnet:?xt=urn:btih:91FB7C6CE2CAEC6382D78F4E769E14930F3804BE
上传的附件:
BT9527电影天堂 1、BT9527电影天堂提供的BT文件均来源于互联网抓取,只供网友学习交流、技术提升使用。
2、我们遵守BitTorrent点对点协议原则,任何版权问题请联系原资源发布商,我们不处理任何版权纠纷,谢谢!如有争议请联系邮箱:BT9527#hotmail.com(#换成@)
3、如果您发现某页面或地址有错误,请联系站长邮箱BT9527#hotmail.com(#换成@),我们会尽快处理。您的热心是对BT9527电影天堂最大的支持。
4、本站建议去正规影院观看电影以支持电影行业发展。
最新回复 (0)

你可以在 登录 or 注册 后,对此帖发表评论!

返回
发新帖